8 MiB Duration : 1mn 29s Overall bit rate mode : Variable Overall bit rate : 2 502 Kbps Movie name : Your song* by Yun*chi - Log Horizon (Theme 2) ED. mkv Uses the format filter to choose the yuv420p pixel format to create 8-bit output. Hopeless dweeb Elliot Richards is granted seven wishes by the Devil to snare Allison, the girl of his dreams, in exchange for his soul. An online BPG encoder and viewer. 10-bit Decoding Encoder Decoder 10-bit compression of a 10-bit source However, this is only a part of the story: encoding pictures using 10-bit processing always saves bandwidth compared to 8-bit processing, whatever the source pixel bit depth. Hello Guys, I'd like to create an h265 video with Main10 profile (10 bits). 9:[Windows][GCC 7. 1 Japanese, with subtitles! Encoded using the time consuming 2 pass, 10 bit color at 4250 kbps, from a Blu-ray source, for the highest quality possible. Summary: A gangster family epic set in 1919 Birmingham, England and centered on a gang who sew razor blades in the peaks of their caps, and their fierce boss Tommy Shelby, who means to move up in t…. 16 GiB (65%) Writing library : x265 3. Simple x264 Launcher 2. 5Mbit, x265 nearly reaches quality transparency when compared to the original, something x264 falls short of, just a bit. 3,793 likes · 1 talking about this · 77 were here. mkv Writing application : Lavf58. 8 is available. I received a response from the author of the paper who ratified that in figure 4 (referenced in the paper) you can see that icc contributed to 20% performance speedup (212/173) and got the 2x speedup by using SIMD+icc (367/173). 4) Several options are incorrect. Bit depth : 32 bits Compression. 1 English, with English and Spanish subtitles! Encoded using the time consuming 2 pass, 10 bit color at 5000 kbps, from a Blu-ray source, for the highest quality possible. Bit depth : 8 bits Writing library : x264 Audio Format : Vorbis Bit rate : 48. 2020 Transfer characteristics : PQ Matrix coefficients : BT. An example of HEVC 10-bit encoding can also be found in the attached code sample. 024 Stream size : 510 MiB (89%) Writing library : x265 2. Convert 10-bit H. Complete name : Trolls World Tour (2020) (1080p AMZN Webrip x265 10bit EAC3 5. Release Calendar DVD & Blu-ray Releases Top Rated Movies Most Popular Movies Browse Movies. Check the HIGH_BIT_DEPTH for 10-bit; Set the CMAKE_INSTALL_PREFIX to a directory the x265 lib, headers, and importantly the pkg-config. 98 GiB (87%) Writing library : x265 2. We have included the extras from original Bluray. I use it to get rid of the rubbish within clips so as to save disk space, especially useful now with the files being larger as a result of higher bitrates. 9+8-27d8424c799d:[Windows][MSVC 1915][64 bit] 10bit. mkv Writing application : Lavf58. 3 KB) Scooby-Doo on Zombie Island (1998) (1080p AMZN Webrip x265 10bit EAC3 2. Bitdepth of output HEVC bitstream, which is also the internal bit depth of the encoder. 3+1-g554c887ac:[Windows][MSVC 1924][64 bit] 10bit. bits used per color) instead of 8 or 10 bits used per color in HDR displays. Torrent details for "Fortitude (2015) S03 (1080p BDrip x265 10bit DTS-HD MA 5. Baka Encoder - software with graphic user interface (GUI) for encoding videofiles with codecs x265 (also x264 is possible) and NeroAAC. pc file will be installed to; Verify the NASM_EXECUTABLE property is pointing the location where you installed NASM. mp4 Formato : MPEG-4 Profilo formato : Base Media. I'll see if there is a newer version. 1 - Ainz[TAoE]" Log in to bookmark. Lets go back to bit depth. 2+35-acc5d16999e2:[Windows][GCC 9. Robot (2015) - S02E04 - eps2. 8+219 (bit-depth 8-12) Jan-20-2016. Robot (2015) - S02E03 - eps2. 3+1-g554c887ac:[Windows][MSVC 1924][64 bit] 10bit. This is different from the desktop color depth with can be 16, 24, or 32 bits and covers not just a single color but the whole color spectrum the computer can display. Bit depth : 10 bits Bits/(Pixel*Frame) : 0. 1 x265 ESub ~RONIN~ Encoded date : UTC 2020-04-18 02:03:02. Some key features of the Simple x264/x265 Launcher software include: Support for creating H. 9 x265 [info]: build info [Mac OS X][clang 7. Bedazzled (2000) IMDB. 3 KB) Scooby-Doo on Zombie Island (1998) (1080p AMZN Webrip x265 10bit EAC3 2. 10-bit x264 & x265 Post by Zeranoe » Tue Feb 06, 2018 1:06 pm FFmpeg recently added support to encode to 8-bit and 10-bit for x264 and x265 within the same executable. 2 AVX XOP FMA4 FMA3 LZCNT BMI1 [email protected]~$ Here you will see that my own copy has capabilities for 10 bit encoding. For example --p should be -preset. 0_unm4sk-pt2. Resolution x264 x265. gz cd x265_2. mkv Writing application : Lavf58. When I was finished, x265 —version confirmed that I had all 3 bit-depth options: x265 [info]: HEVC encoder version 1. x265 Encoder/Encoding. 8 is available. Clearly the device is capable of 10-Bit color if it can handle it in x264. 5 Video ID : 1 Format : HEVC Format/Info : High Efficiency Video Coding Format profile : Main. Maybe, it’s false positive virus detection, but I don’t want to test it myself. 1 - ArcX)[TAoE]. Overall bit rate mode : Variable Overall bit rate : 3 129 kb/s Encoded date : UTC 2020-03-23 03:24:33 Writing application : HandBrake 1. Overall bit rate : 2 406 kb/s Movie name : Derry Girls (2018) S01E01 Episode 1 (1080p NF WEB-DL x265 10bit EAC3 5. Bit depth : 10 bits Bits/(Pixel*Frame) : 0. Complete name : Trolls World Tour (2020) (1080p AMZN Webrip x265 10bit EAC3 5. Download Thuppakki (1080P 5. 265 encoders. Torrent details for "Hunters (2020) S01 1080p AMZN Webrip x265 10bit EAC3 5. Overall bit rate : 3 300 kb/s Movie name : The Call of the Wild (2020) (1080p AMZN Webrip x265 10bit EAC3 5. It can play PPMF (password. Microsoft Security Essentials version: 1. When I was finished, x265 —version confirmed that I had all 3 bit-depth options: x265 [info]: HEVC encoder version 1. - llogan Sep 20 '17 at 2:43. Robot (2015) - S02E01-E02 - eps2. 8 MB IMDB information:. x265 CLI is a command line software. 0 ('Beyond The Pale') 64-bit. 182 Stream size : 300 MiB (94%) Writing library : x265 3. 80 GiB Duration : 1 h 53 min Overall bit rate : 3 545 kb/s Movie name : The Gentlemen (2019) (1080p AMZN Webrip x265 10bit EAC3 5. Description. Note that this filter is not FDA approved, nor are we medical professionals. One bit can represent two different values. Stack Exchange Network. 1 - Goki Torrent for Free with TorrentFunk. This download is licensed as freeware for the Windows (32-bit and 64-bit) operating system on a laptop or desktop PC from media converter software without restrictions. That could mean an 8 bit encrypted password with 256 combinations or in this case an 8 bit graphic with 256 red shades, green shades and blue shades. 2+35-acc5d16999e2:[Windows][GCC 9. 32 GiB (86%). Bit depth : 8 bits Writing library : x264 Audio Format : Vorbis Bit rate : 48. Check the HIGH_BIT_DEPTH for 10-bit; Set the CMAKE_INSTALL_PREFIX to a directory the x265 lib, headers, and importantly the pkg-config. 8 MB IMDB information:. 024 Stream size : 411 MiB (84%) Writing library : x265 2. 0][64 bit] 10bit x265 [info]: using cpu capabilities: MMX2 SSE2Fast SSSE3 SSE4. Clearly the device is capable of 10-Bit color if it can handle it in x264. Applications like ffmpeg and the x265 CLI which use our bit-depth introspection API (x265_api_get) instead of the globally exported C interface can select between 8 and 10bit libx265 libraries at runtime. Overall bit rate : 1 762 kb/s Movie name : The Invisible Man (2020) (1080p AMZN Webrip x265 10bit EAC3 5. pls guide me about including bit depth in both the encoders and setting specific height and width in virtualdub resize filter failed Thank you. Resolution x264 x265. Conclusion. Download the Green Lantern - Emerald Knights (2011) 1080p BDRip x265 10bit AC3 5. On my machine, the x264 10-bit version was often coming up as the default selection. 105 Stream size : 2. Just got curious of this x265 HEVC format, and tried it on a 1920x1080i BDMV stream video, one encoded with 8bit depth and then another encoded with 12bit depth. 2+35-acc5d16999e2:[Windows][GCC 9. And a Fighting Style (Archery, of course). For example, a 16x16 CU will only use the references used to code its four 8x8 CUs. When set to X265_REF_LIMIT_DEPTH (1) x265 will limit the references analyzed at the current depth based on the references used to code the 4 sub-blocks at the next depth. Complete name : Contagion (2011) (1080p BrRip x265 10bit EAC3 5. For chroma sampling the maximum bit rate increases by 1. 5 KB) Scooby-Doo on Zombie Island (1998) (1080p AMZN Webrip x265 10bit EAC3 2. Download Banshee Season 3 S03 1080p HDTV x265 HEVC AAC 5. 047 Stream size : 1. trellis = 1 or 2, or deadzone is 10,10 or lower. An example of HEVC 10-bit encoding can also be found in the attached code sample. 98 GiB (87%) Writing library : x265 2. mkv Writing application : Lavf58. The 240Mbps MainConcept H. This study compares 4 differents video encoders, AOM AV1 libaom, Google VP9 libvpx, x264 and x265. The results are, the 8bit output was. 5)-x265-params accepts a colon delimited list of options as shown by Mulvya's answer. When I was finished, x265 —version confirmed that I had all 3 bit-depth options: x265 [info]: HEVC encoder version 1. As of today, the latest version of Handbrake (v1. 1+1-b5c86a64bbbe:[Windows][GCC 8. Overall bit rate : 2 197 kb/s Movie name : DuckTales (2017) S02E01 The Most Dangerous Game Night! (1080p AMZN Webrip x265 10bit EAC3 2. Published Date: January 22, 2019 Leave a Comment on Jurassic Park III 2001 (1080p Bluray x265 HEVC 10bit AAC 7. If something is 8 bits it means it has 256 possible combinations. 9-1-1 is an American procedural drama television series created by Ryan Murphy , Brad Falchuk and Tim Minear which follows the lives of Los Angeles first responders: cops, paramedics, firefighters and dispatchers. The film began production in April 2018 and ended in July the same year. 264, or MPEG-4 Part 10). This manifests itself in either of two ways: If quality is controlled with a constant rate factor (e. mkv Uses the format filter to choose the yuv420p pixel format to create 8-bit output. subme >= 9. Bit depth : 10 bits Writing library : x265 3. 0 Kbps Sampling rate : 44. The picture bit depth is initialized to be the encoder’s internal bit depth but this value should be changed to the actual depth of the pixels being passed into the encoder. 0][64 bit] 10bit Color range : Limited. 1 - Goki)[TAoE]. Torrent details for "Fortitude (2015) S03 (1080p BDrip x265 10bit DTS-HD MA 5. See the illustration for ResampleHQ. However ffmpeg keeps saying that profile=main10 is an unknown option. 9+3 – all of them failed to download (tojan: Win32/Spursint. Bit rate mode : Variable Bit rate : 6 291 kb/s Channel(s) : 8 channels Channel layout : C L R LFE Lb Rb Lss Rss Sampling rate : 48. 049 Stream size : 1. Therefore, you can just select those presets and “BOOM!”. mkv ETTV torrent download - Free Download of Devs (2020) S01E08 (1080p AMZN Webrip x265 10bit EAC3 5. mkv Format : Matroska Format version : Version 4 File size : 2. BDRiP One Direction: Where We Are - Live From San Siro Stadium [2014, x265 1080p BrRip, DTS 6ch 24bit]. se successor, suitable for all anime and manga needs. 019 Stream size : 2. If you encode high-bit depth video, you can get better compression (reportedly up to 30%) and less banding. 024 Stream size : 217 MiB (79%) Writing library : x265 2. In x265 version 3. 1 - ArcX)[TAoE]. Some key features of the Simple x264/x265 Launcher software include: Support for creating H. mkv Format : Matroska Format version : Version 4 / Version 2 File size : 292 MiB Duration : 24 min 41 s. gz cd x265_2. Lenala Jan 24th, 2016 167 Never Not a member of Pastebin yet? Sign Up, it unlocks many cool features! raw --recon-depth Bit-depth of reconstructed raw image file. Devs (2020) S01E08 (1080p AMZN Webrip x265 10bit EAC3 5. 072 Stream size : 2. 3+1-g554c887ac:[Windows][MSVC 1924][64 bit] 10bit. 9+3 - all of them failed to download (tojan: Win32/Spursint. Commercial licenses are available for companies who want to use x265 in video hardware and software products. 1 - Ainz)[TAoE]" Log in to bookmark. While x265 does the outlines and the steam part quite like in the original frame, x264 rips the outlines apart a bit too much, and slight block artifacts can again be seen for the steam part. 0, this feature is disabled under the "veryslow" preset. Meaning of bit depth. 8 is available. high bit-depth signal covers the same dynamic range as the corresponding low bit-depth signal, but with a smaller size of the quantization interval. On my machine, the x264 10-bit version was often coming up as the default selection. 17 GiB (83%) Writing library : x265 2. We use five algorithms in order to compare each format:. This manifests itself in either of two ways: If quality is controlled with a constant rate factor (e. Torrent details for "Richard Hammonds Big (2020) S01 (1080p AMZN Webrip x265 10bit EAC3 2. To support this both libraries must be available either as shared libraries or as a pair of static libraries. Main Profile (MP): Originally intended as the mainstream consumer. Its purpose is to replace the JPEG image format when quality or file size is an issue. 9:[Windows][GCC 7. and at a given quality level, bit rate can vary quite a bit. x265 HEVC 10-Bit (color depth) encoded files - FAIL. mkv Encoded date : UTC 2020-03-28 02:00:03. x265 Encoder is a free software library and application for encoding video streams into the H265/MPEG-H HEVC compression format, and is released under the terms of the GNU GPL. 1) has finally included x265 encode presets and also included support for 10/ 12-bits. Color depth is also known as bit depth, and is the number of bits used to display the color of a single pixel. In comparison to AVC, HEVC offers from 25% to 50% better data compression at the same level of video quality, or substantially improved video quality at the. 1 English, with English and Spanish subtitles! Encoded using the time consuming 2 pass, 10 bit color at 5000 kbps, from a Blu-ray source, for the highest quality possible. 1 - Goki)[TAoE]. The results are, the 8bit output was. 5× for 12-bit profiles and 2× for 16-bit profiles. 3+17-6e348252e902 x265 [info]: build info [Windows][GCC 6. high bit-depth signal covers the same dynamic range as the corresponding low bit-depth signal, but with a smaller size of the quantization interval. - 8bit-depth output (default) download this as the normal version - 10bit-depth output is for professional applications with specialised decoders - 10bit-depth output information links:. I use it to get rid of the rubbish within clips so as to save disk space, especially useful now with the files being larger as a result of higher bitrates. See the illustration for ResampleHQ. Torrent details for "The. DDLbase Administrator Staff Member. And a Fighting Style (Archery, of course). Bits/(Pixel*Frame) : 0. FFmpeg and its photosensitivity filter are not making any medical claims. x265_picture_init initializes this field to the internal color space and it is best to leave it unmodified. Please let me know if you need any further clarification, thanks. Video formats comparison Introduction. Updated to now include 12bit depth binaries. Slender Man (2018) on IMDb: Movies, TV, Celebs, and more Menu. 4) Several options are incorrect. 9+3 VC12 64 bit 8 bit 1. 9+8-27d8424c799d:[Windows][MSVC 1915][64 bit] 10bit. 1 JoyBell torrent or any other torrent from the Video HD - TV shows. Results 1 to 12 of 12 FFMPEG x265 10bit and virtualdub x265 10bit settings. Description. 3+1-g554c887ac:[Windows][MSVC 1924][64 bit] 10bit. BPG Image format News (Apr 21 2018) Release 0. 7 GB: 04/02/20: 0: 0 Star Wars Episode VI Return of the Jedi 1983 2160p BluRay x265 10bit SDR TrueHD 7. 0, this feature is disabled under the “veryslow” preset. See (2019) S01E06 Silk (1080p ATVP Webrip x265 10bit EAC3 5. The Equalizer 2 (2018) on IMDb: Movies, TV, Celebs, and more. Overall bit rate : 4 067 kb/s Movie name : Modern Family S11E17E18 Finale (1080p AMZN Webrip x265 10bit EAC3 5. 0 ('Beyond The Pale') 64-bit. Published Date: January 22, 2019 Leave a Comment on Jurassic Park III 2001 (1080p Bluray x265 HEVC 10bit AAC 7. Bit depth : 10 bits Bits/(Pixel*Frame) : 0. 0_unm4sk-pt2. Color depth. Check the HIGH_BIT_DEPTH for 10-bit; Set the CMAKE_INSTALL_PREFIX to a directory the x265 lib, headers, and importantly the pkg-config. x265 HEVC 10-Bit (color depth) encoded files - FAIL. Usually it is measured in bits per pixel. 4 x265 [info]: build info [Linux][GCC 7. Grant to go to Isla Sorna, resulting in an unexpected landing, and startling new inhabitants on the island. 9+3 GCC 64 bit 10 bit 1. 73 GiB (38%) Title : Encoded by ArcX for TAoE Writing library : x265 3. Devs (2020) S01E08 (1080p AMZN Webrip x265 10bit EAC3 5. Commercial licenses are available for companies who want to use x265 in video hardware and software products. Applications like ffmpeg and the x265 CLI which use our bit-depth introspection API (x265_api_get) instead of the globally exported C interface can select between 8 and 10bit libx265 libraries at runtime. 9+3 VC12 64 bit 8 bit 1. Overall bit rate : 3 300 kb/s Movie name : The Call of the Wild (2020) (1080p AMZN Webrip x265 10bit EAC3 5. If the requested bit depth is not the bit depth of the linked libx265, it will attempt to bind libx265_main for an 8bit encoder, libx265_main10 for a 10bit encoder, or libx265_main12 for a 12bit encoder, with the same API version as the linked libx265. High Efficiency Video Coding (HEVC), also known as H. 1 HxD) [TAoE] Encoded date : UTC 2020-03-07 06:37:22. Yeh Ballet 2020 Hindi 1080p 10bit NF WEBRip DD5. 2+35-acc5d16999e2:[Windows][GCC 9. It is the fourth in the Ip Man film series based on the life of the Wing Chun grandmaster of the same name and features Donnie Yen reprising the role. Run (2020) S01E01 Run (1080p AMZN Webrip x265 10bit EAC3 5. 047 Stream size : 1. Direct download via HTTP available as well. Lenala Jan 24th, 2016 167 Never Not a member of Pastebin yet? Sign Up, it unlocks many cool features! raw --recon-depth Bit-depth of reconstructed raw image file. Previously, the default value for this preset was set as "1", which restrict analysis at the current depth, based on references used to code four sub-blocks at the next. 0][64 bit] 10bit Encoding settings. Thread Tools. 3+1-g554c887ac:[Windows][MSVC 1924][64 bit] 10bit. Therefore, you can just select those presets and "BOOM!". Bit depth : 10 bits Bits/(Pixel*Frame) : 0. 1 - Goki)[TAoE]. 0][64 bit] 10bit. asec (1080p BluRay x265 RCVR). Hopeless dweeb Elliot Richards is granted seven wishes by the Devil to snare Allison, the girl of his dreams, in exchange for his soul. Please let me know if you need any further clarification, thanks. 4:2:0 Bit depth : 10 bits Bits/(Pixel*Frame) : 0. 086 Stream size : 2. In the interest of keeping the code clean, we'll programically prevent assembly use in the event this unsupported build combination is used. 265 encoders. 5) at +5 to hit to 1d8+1d6+3 (10) at +7 to hit. The results are, the 8bit output was. “–limit-tu” enables an early exit from TU depth recursion, for inter coded blocks. Robot (2015) - S02E03 - eps2. 1 x265 ESub ~RONIN~ Encoded date : UTC 2020-04-18 02:03:02. 98 GiB (87%) Writing library : x265 2. THESEVEN THESEVEN ben fatto, grazie, unica pecca è nel titolo poichè non è un 1080p (la risoluzione è 1920x800), grazie cmq ottima release!!!. 2][64 bit] 8bit+10bit+12bit <- ***** x265 [info]: using cpu capabilities: MMX2 SSE2Fast SSSE3 SSE4. x265 Encoder/Encoding. 6th Jun 2016 09:17 #2. The separate 10-bit-only version I compiled above doesn't seem to suffer from this issue, so you may want to use that if you're doing x265 10-bit at those speeds. That could mean an 8 bit encrypted password with 256 combinations or in this case an 8 bit graphic with 256 red shades, green shades and blue shades. I first deleted old x265 executable and libx265* files. mkv ETTV torrent download - Free Download of Devs (2020) S01E08 (1080p AMZN Webrip x265 10bit EAC3 5. 9+3 – all of them failed to download (tojan: Win32/Spursint. Just change “Color Space” option from default I420 to I420 10-bit or I444 10-bit and you are ready. BERIKUT DAFTAR ANIME YANG DI GARAP BDFANSUB Untuk request anime, kunjungi Disini -- AKAN DIGARAP -- Tenki no Ko / W. mkv Writing application : Lavf58. mkv Format : Matroska Format version : Version 4 File size : 3. - 8bit-depth output (default) download this as the normal version - 10bit-depth output is for professional applications with specialised decoders - 10bit-depth output information links:. Download Strike Back (2010) Season 05 S05 (1080p BluRay x265 HEVC 10bit AAC 5. enc-mode 7. in-depth reviews and helpful tips. If you want lossless mode then then replace -crf with -x265-params lossless=1, but note this can create large files. 038 Stream size : 289 MiB (91%) Title : Encoded by Goki for TAoE Writing library : x265 3. x265 source code is available for developers who would like to contribute to the project, or build open-source applications under the terms of the GNU GPL v2 license. When I was finished, x265 —version confirmed that I had all 3 bit-depth options: x265 [info]: HEVC encoder version 1. Simple x264/x265 Launcher on 32-bit and 64-bit PCs. Play any media file including HEVC x265 (8-bit, 10-bit, and 12-bit), also you can protect your private videos with a password to prevent anthers from accessing them. On my machine, the x264 10-bit version was often coming up as the default selection. x265 supports the Main, Main 10, Main 12 and Main Still Picture profiles of HEVC (including intra-only profiles), utilizing a bit depth of either 8 bits or 10 bits per sample YCbCr with 4:2:0, 4:2:2 or 4:4:4 chroma subsampling. Definition: 720p Subtitle: Muxed English Bit Depth: 8 bit Writing library: x265 Download: File. Previously, the default value for this preset was set as "1", which restrict analysis at the current depth, based on references used to code four sub-blocks at the next. Bit depth : 10 bits Bits/(Pixel*Frame) : 0. Overall bit rate : 3 300 kb/s Movie name : The Call of the Wild (2020) (1080p AMZN Webrip x265 10bit EAC3 5. 976 (24000/1001) FPS Color space : YUV Chroma subsampling : 4:2:0 Bit depth : 10. I first deleted old x265 executable and libx265* files. Default: i420-f/--frames Maximum number of frames to encode. Some key features of the Simple x264/x265 Launcher software include: Support for creating H. Previously, the “–limit-tu” was 4, which means the 1st sub-TU depth is taken as the limiting depth for the other sub-TUs. Windows 7 Professional SP1 with all last updates. 6th Jun 2016 09:17 #2. 1 - ArcX)[TAoE]. x265 Encoder is a free software library and application for encoding video streams into the H265/MPEG-H HEVC compression format, and is released under the terms of the GNU GPL. - llogan Sep 20 '17 at 2:43. Stream size : 2. To download this torrent, you need a BitTorrent client: Vuze or BTGuard Download this torrent Download using Magnet Link Health: Seeds: 11 Leechers: 8 Completed: 580 Last Checked: 11-01-2020 21:41:15 Uploader Reputation points : 3042: External: Torrent. Not sure if anyone else bothered to report this, but I am experiencing horrible sluggishness when accessing a directory with HEVC/x265 or Hi10p/10bit videos. The Sandlot 1993 20th Anniversary Edition in 1080p, encoded with x265 in HEVC and AAC 5. However ffmpeg keeps saying that profile=main10 is an unknown option. 264, was developed in 2003 and it started to become widespread in 2008 after leading platforms like Adobe Flash and Blu-ray Disc. x264 AVC 10-Bit (color depth) encoded files - PASS. x265 source code is written in C++ and assembly. mkv Writing application : Lavf58. Bit depth : 32 bits Compression. Format : Matroska. Bit depth : 10 bits Bits/(Pixel*Frame) : 0. Overall bit rate mode : Variable Overall bit rate : 3 129 kb/s Encoded date : UTC 2020-03-23 03:24:33 Writing application : HandBrake 1. 0][64 bit] 10bit Encoding settings. 96 is available to all software users as a free download for Windows 10 PCs but also without a hitch. 4) Several options are incorrect. 0][64 bit] 10bit. 2+9-971180b100f8:[Windows][GCC 9. Maybe, it’s false positive virus detection, but I don’t want to test it myself. mkv Encoded date : UTC 2020-03-28 10:17:21. 1 - Goki)[TAoE]. GCC 64 bit 8 bit 1. For more details on x265 and 10/ 12-bit, read on. One of the biggest factors in the quality difference of 4K UHD files would be the bitrate used. Improved 10-bit video encoding with x264, x265 and NVENC. Main Profile (MP): Originally intended as the mainstream consumer. There are usually three color channels, so that makes a bit depth of 24 bits per pixel, which is also the most commonly used bit depth of modern desktop PCs. --input-depth Bit-depth of input file. And a Fighting Style (Archery, of course). This forum is for general discussion regarding VCarve Pro. You are set to go. improve this question. 51 GiB (84%) Title : Encoded by ArcX for TAoE Writing library : x265 3. Download Strike Back (2010) Season 05 S05 (1080p BluRay x265 HEVC 10bit AAC 5. Young Sheldon S03E20 720p HEVC x265-MeGusta File Size : 125. Download The Lord of the Rings The Return of the King (2003) THEATRICAL CUT (1080p BluRay x265 HEVC 10bit AAC 7. 1 Japanese, with subtitles! Encoded using the time consuming 2 pass, 10 bit color at 4250 kbps, from a Blu-ray source, for the highest quality possible. 0, this feature is disabled under the “veryslow” preset. Star Wars Episode II Attack of the Clones 2002 2160p UHD BluRay x265-DEPTH: 12. Setscrew type collar will not damage bits. 976 (24000/1001) FPS Color space : YUV Chroma subsampling : 4:2:0 Bit depth : 10. I've found that, for a given video, a given set of parameters to ffmpeg, and a given version of libx265--holding everything constant except for whether x265 is built with HIGH_BIT_DEPTH enabled--the higher bit depth significantly reduces coding efficiency. Default 8--input-csp Source color space: i420, i444 or i422, auto-detected if Y4M. profile = [email protected] 5× for 4:2:2 profiles and 2× for 4:4:4 profiles. If you do the the math, 256 times 256 times 256 equals roughly 16. Discussion in 'HD Live Performances' started by Hossein Enr7que, Aug 18, 2017. 4 GB: 04/02/20: 0: 0 Rogue One A Star Wars Story 2016 2160p UHD BluRay x265-DEPTH: 33. BDRiP One Direction: Where We Are - Live From San Siro Stadium [2014, x265 1080p BrRip, DTS 6ch 24bit]. 0 - Goki)[TAoE]-keyart. Overall bit rate : 3 300 kb/s Movie name : The Call of the Wild (2020) (1080p AMZN Webrip x265 10bit EAC3 5. x265 HEVC 8-Bit (color depth) encoded files - PASS. 1 - Goki)[TAoE]. The number of bits used to represent each color determines the range of shades one can generate. 5 GB: 04/02/20: 0: 0 Star Wars Episode VI Return of the Jedi 1983 COMPLETE UHD. 14 GiB (85%) Title : Guilty (2020) (1080p WEBRip x265 HEVC 10bit AAC 5. Drill Bit Depth Stop Collar Drill Limited ring, clamping device, positioner. 1 ESub x265 - MoviePirate - Telly torrent download - ExtraTorrent. Download the Green Lantern - Emerald Knights (2011) 1080p BDRip x265 10bit AC3 5. you'd get much less banding in your encode in 10 bit. See the illustration for ResampleHQ. mkv Format : Matroska Format version : Version 4 File size : 4. 2) It does not use -o to indicate an output. 264 Profiles. 264 container (with an MP4 extension). 17 GiB (83%) Writing library : x265 2. HandBrake's main development repository. Results 1 to 12 of 12 FFMPEG x265 10bit and virtualdub x265 10bit settings. 45 GiB (88%) Writing library : x265 2. 2 2019022300 Writing library : Lavf58. 105 Stream size : 2. 9:[Windows][GCC 7. 1 JoyBell torrent or any other torrent from the Video HD - TV shows. 100 Writing library : Lavf58. 024 Stream size : 166 MiB (87%) Writing library : x265 3. 1-TERMiNAL [IMG] Jason Bourne (2016) Director: Paul Greengrass Stars: Matt Damon, Tommy Lee Jones, Alicia Vikander Runtime: 2h 3min (taken from IMDb) Genre:. 0][64 bit] 10bit Color range : Limited. Therefore, you can just select those presets and "BOOM!". For example, if you want to see the difference at insanely low bitrates, you might select a bitrate of 50 on each side, then hit the Show Changes. mkv Uses the format filter to choose the yuv420p pixel format to create 8-bit output. Using the next script I get a compilation error in the last step SCRIPT ``` #!sh local ld_flags=$LDFLAGS local extra_cmake_options="-DENABLE_SHARED=0 -DENABLE_PIC=1. Maybe, it’s false positive virus detection, but I don’t want to test it myself. mkv Format : Matroska Format version : Version 4 File size : 3. Now, you can use a higher bit depth for video encoding, and x264 currently allows up to 10 bits per channel (1024 levels and 30 bits per pixel), and of course that allows for much higher. Press Configure Another property called MAIN12 will probably get highlighted in red. x265_picture_init initializes this field to the internal color space and it is best to leave it unmodified. To support this both libraries must be available either as shared libraries or as a pair of static libraries. Currently, all HDR content is 10-bit, with black mapped at the 64 value, middle gray at 512 and peak luminance at 940/960. Some key features of the Simple x264/x265 Launcher software include: Support for creating H. 5 Video ID : 1 Format : HEVC Format/Info : High Efficiency Video Coding Format profile : Main. If something is 8 bits it means it has 256 possible combinations. 3 / source vim CMakeLists. Anyone else having this issue? I find it weird that 10-Bit works on x264, but not x265. Bitdepth of output HEVC bitstream, which is also the internal bit depth of the encoder. 0, this feature is disabled under the "veryslow" preset. I want to have that same color palate after the encode so I'm not losing colors and quality. 1-TERMiNAL [IMG] Jason Bourne (2016) Director: Paul Greengrass Stars: Matt Damon, Tommy Lee Jones, Alicia Vikander Runtime: 2h 3min (taken from IMDb) Genre:. Definition of bit depth in the Definitions. mkv Writing application : Lavf58. {"code":200,"message":"ok","data":{"html":"\n. “–limit-refs” implies that x265 will limit references for a PU at a given CU-depth by using information from its higher depth and/or other PU modes at the same depth. 3+1-g554c887ac:[Windows][MSVC 1924][64 bit] 10bit. The number of bits used to represent each color determines the range of shades one can generate. 1 - Goki Torrent for Free with TorrentFunk. 1 - DNU) [TAoE]. bit depth = 8 bits. Clearly the device is capable of 10-Bit color if it can handle it in x264. Press Configure Another property called MAIN12 will probably get highlighted in red. 3 with 10 bit or High Bit Depth, however IFME use force 8 bit encoding, because High Bit Depth not yet fully optimized for performance, however this can adjust by enable "Use auto detect" or forced 10 bit (will cause 8 bit input will encode into 10 bit). Description. The separate 10-bit-only version I compiled above doesn't seem to suffer from this issue, so you may want to use that if you're doing x265 10-bit at those speeds. x265 is available under the open source GNU GPL v2 license, providing many benefits over competing proprietary encoders. x265 supports the Main, Main 10, Main 12 and Main Still Picture profiles of HEVC (including intra-only profiles), utilizing a bit depth of either 8 bits or 10 bits per sample YCbCr with 4:2:0, 4:2:2 or 4:4:4 chroma subsampling. Re: x265 10bit Support Post by rayz » Wed Nov 23, 2016 5:31 am Due to some cross-compiling problems using the script above, I also need an ffmpeg binary with libx265 10bit enabled, hope to be included. For more details on x265 and 10/ 12-bit, read on. What does bit depth mean? Information and translations of bit depth in the most comprehensive dictionary definitions resource on the web. asked Dec 3 '14 at 2:25. Overall bit rate : 3 300 kb/s Movie name : The Call of the Wild (2020) (1080p AMZN Webrip x265 10bit EAC3 5. In x265 version 3. Microsoft Security Essentials version: 1. Format : Matroska. 0 kHz Frame rate : 93. asec (1080p BluRay x265 RCVR). Bit depth : 10 bits Bits/(Pixel*Frame) : 0. Overall bit rate mode : Variable Overall bit rate : 5 138 kb/s Movie name : Green Lantern - First Flight (2009) 1080p BDRip x265 10bit TrueHD 5. mp4 Formato : MPEG-4 Profilo formato : Base Media. 34 GiB Duration : 1 h 30 min Overall bit rate : 5 270 kb/s Movie name : Trolls World Tour (2020) (1080p AMZN Webrip x265 10bit EAC3 5. x265 still suffers too much from that when using 8 bit. 45 GiB (88%) Writing library : x265 2. - llogan Sep 20 '17 at 2:43. The separate 10-bit-only version I compiled above doesn't seem to suffer from this issue, so you may want to use that if you're doing x265 10-bit at those speeds. Star Wars Episode II Attack of the Clones 2002 2160p UHD BluRay x265-DEPTH: 12. 264 libx264 x264. 102 Stream size : 3. For the Intra profiles the maximum bit rate increases by 2×. Several issues: 1) ffmpeg uses -, not --as an option prefix, such as -map, not --map. 1 - Ainz[TAoE]" Log in to bookmark. 3+1-g554c887ac:[Windows][MSVC 1924][64 bit] 10bit. 5× for 4:2:2 profiles and 2× for 4:4:4 profiles. Simple x264 Launcher 2. Banding is one of the most serious liabilities of 8-bit depth. Bit depth : 10 bits Bits/(Pixel*Frame) : 0. General Unique ID : 60436518112571817510966726580758823109 (0x2D77A6662FE14ED88CD6FC8819E6C0C5) Complete name : Band of Brothers/Band. image Any questions, or help playing this file, click on the HEVC banner just above. x265 is an open source and cross-platform next-generation video encoder utility that uses the H265/HEVC (High Efficiency Video Coding) video compression standard, the successor of the widely used H. in-depth reviews and helpful tips. net dictionary. It is known as monochrome or black and white. 1 x265 ESub ~RONIN~ Encoded date : UTC 2020-04-18 02:03:02. 2020 non-constant Audio ID : 2. 1 - Ainz)[TAoE] Torrent - RARBG. DDLbase Administrator Staff Member. 2+35-acc5d16999e2:[Windows][GCC 9. When set to X265_REF_LIMIT_DEPTH (1) x265 will limit the references analyzed at the current depth based on the references used to code the 4 sub-blocks at the next depth. Built 2020-05-04: 64Bit-8bit-. 0 - Ainz) [TAoE] Torrent for Free with TorrentFunk. 019 Stream size : 2. 1 audio all for about 170mb each! Encoded using 2 pass, from the Bluray, with the slow setting for the highest quality possible. Download the The Dead Lands (2020) S01 (1080p AMZN Webrip x265 10bit EAC3 2. HandBrake's main development repository. mkv Writing application : Lavf58. We use five algorithms in order to compare each format:. They feature Forward Printing ’s soft ‘discharge’ ink (bleaching out the T, rather than printing on top). 1 Joy) [UTR] torrent for free, HD Full Movie Streaming Also Available in Limetorrents. 056 Stream size : 2. - x265 encoder quality improvements, especially when using tune grain - High bit depth encoding support via external shared libraries (video pipeline is still 8-bit 4:2:0) - x264 10-bit - x265 10-bit and 12-bit Audio - Opus audio encoding/decoding via libopus - Passthru now supports E-AC-3, FLAC, and TrueHD audio formats Subtitles. Just got curious of this x265 HEVC format, and tried it on a 1920x1080i BDMV stream video, one encoded with 8bit depth and then another encoded with 12bit depth. Several issues: 1) ffmpeg uses -, not --as an option prefix, such as -map, not --map. For example, if you want to see the difference at insanely low bitrates, you might select a bitrate of 50 on each side, then hit the Show Changes. 63 GiB (82%) Writing library : x265 3. Re: x265 10bit Support Post by rayz » Wed Nov 23, 2016 5:31 am Due to some cross-compiling problems using the script above, I also need an ffmpeg binary with libx265 10bit enabled, hope to be included. 1 English] ESubs ~ TombDoc torrent or any other torrent from Movies category. 5Mbit, x265 nearly reaches quality transparency when compared to the original, something x264 falls short of, just a bit. Contribute to HandBrake/HandBrake development by creating an account on GitHub. So it can do 4:2:2 at 10 bit depth, and even 4:4:4 at 10 bits apparently, but there's no indication of how to set the output bit depth. Download Jesus of Nazareth (edition 1977) remux v4 x265 bluegate torrent or any other torrent from Movies category. Currently, all HDR content is 10-bit, with black mapped at the 64 value, middle gray at 512 and peak luminance at 940/960. 2) It does not use -o to indicate an output. mkv Encoded date : UTC 2020-03-28 10:17:21. 024 Stream size : 411 MiB (84%) Writing library : x265 2. 0][64 bit] 10bit Encoding settings. 032 Stream size : 261 MiB (71%) Title : Encoded by Goki for TAoE Writing library : x265 3. 024 Stream size : 217 MiB (79%) Writing library : x265 2. Bit depth : 10 bits Bits/(Pixel*Frame) : 0. 3+2-gd9a7411cc:[Windows][MSVC 1925][64 bit] 10bit. Clearly the device is capable of 10-Bit color if it can handle it in x264. 0 ('Duel with the Devil') 64-bit Writing library : libebml v1. 5)-x265-params accepts a colon delimited list of options as shown by Mulvya's answer. The Blind Swordsman: Zatoichi 2003 in 1080p, encoded with x265 in HEVC and AAC 5. 5 Video ID : 1 Format : HEVC Format/Info : High Efficiency Video Coding Format profile : Main. Download Bedazzled (2000) (1080p BDrip x265 10bit TRUEHD 5. 1 - Goki)[TAoE]. 264, was developed in 2003 and it started to become widespread in 2008 after leading platforms like Adobe Flash and Blu-ray Disc. 16 GiB (65%) Writing library : x265 3. Banding is one of the most serious liabilities of 8-bit depth. We have prevented HIGH_BIT_DEPTH builds for 32bit target platforms for a very long time. 10-bit x264 & x265 Post by Zeranoe » Tue Feb 06, 2018 1:06 pm FFmpeg recently added support to encode to 8-bit and 10-bit for x264 and x265 within the same executable. BPG Image format News (Apr 21 2018) Release 0. MKVToolNix omits x265 Video Stream Importation Hello, I came across some MP4 files that my TV doesn't want to play, so I thought of converting them to MKV to try them again. The second aspect about how BT. Download the Green Lantern - Emerald Knights (2011) 1080p BDRip x265 10bit AC3 5. there isn't one GUI out there to decently decode vids with the H. For bit depth the maximum bit rate increases by 1. Bit depth : 10 bits. On my machine, the x264 10-bit version was often coming up as the default selection. Hi, I managed to succesfully build multi-bit depth x265 using ur build script, x265 [info]: HEVC encoder version 2. High Efficiency Video Coding (HEVC), also known as H. 2][64 bit] 8bit+10bit+12bit <- ***** x265 [info]: using cpu capabilities: MMX2 SSE2Fast SSSE3 SSE4. The reason HDR standards are 10-bit or higher is because the additional values are needed to prevent the banding which would occur if 8-bit depth was used with an HDR gamma curve. mkv Encoded date : UTC 2020-03-28 02:00:03. 4:2:0 Bit depth : 8 bits Bits/(Pixel. Not sure if anyone else bothered to report this, but I am experiencing horrible sluggishness when accessing a directory with HEVC/x265 or Hi10p/10bit videos. 2+35-acc5d16999e2:[Windows][GCC 9. 0 will only import their audio tracks (1 per file, ACC), leaving out the x265 video track. General Unique ID : 60436518112571817510966726580758823109 (0x2D77A6662FE14ED88CD6FC8819E6C0C5) Complete name : Band of Brothers/Band. On 10-bit (Foodmarket) results are even larger. 1+1-b5c86a64bbbe:[Linux][GCC 9. For example, if you want to see the difference at insanely low bitrates, you might select a bitrate of 50 on each side, then hit the Show Changes. Resolution x264 x265. 7 GB: 04/02/20: 0: 0 Star Wars Episode VI Return of the Jedi 1983 2160p BluRay x265 10bit SDR TrueHD 7. 182 Stream size : 300 MiB (94%) Writing library : x265 3. Using x265 10bit encoding, the "Slower" preset, the hqdn3d de-noise filter makes most episodes fit nicely under 200mb while keeping the original AC3 audio track. Download Thuppakki (1080P 5. Part 3: Diving in deep. 5Mbit, x265 nearly reaches quality transparency when compared to the original, something x264 falls short of, just a bit. Check the HIGH_BIT_DEPTH for 10-bit; Set the CMAKE_INSTALL_PREFIX to a directory the x265 lib, headers, and importantly the pkg-config. Default 8--input-csp Source color space: i420, i444 or i422, auto-detected if Y4M. I use it to get rid of the rubbish within clips so as to save disk space, especially useful now with the files being larger as a result of higher bitrates. Bit rate mode : Variable Bit rate : 6 291 kb/s Channel(s) : 8 channels Channel layout : C L R LFE Lb Rb Lss Rss Sampling rate : 48. mkv Writing application : Lavf58. Note that this filter is not FDA approved, nor are we medical professionals. Complete name : Star Trek Into Darkness 2013 IMAX (1080p x265 10bit Tigole). Color depth is also known as bit depth, and is the number of bits used to display the color of a single pixel. Lenala Jan 24th, 2016 167 Never Not a member of Pastebin yet? Sign Up, it unlocks many cool features! raw --recon-depth Bit-depth of reconstructed raw image file. 4 GB: 04/02/20: 0: 0 Rogue One A Star Wars Story 2016 2160p UHD BluRay x265-DEPTH: 33. Torrent details for "Hunters (2020) S01 1080p AMZN Webrip x265 10bit EAC3 5. you can either get better quality for a given bit rate from x265, or the same quality at a lower bit rate. 1 - Ainz)[TAoE]" Log in to bookmark. Bit depth : 10 bits Bits/(Pixel*Frame) : 0. It can play PPMF (password. me_range >= 32. 264/MPEG-4 AVC video encoder. 0_unm4sk-pt2. If you encode high-bit depth video, you can get better compression (reportedly up to 30%) and less banding. x265 supports the Main, Main 10, Main 12 and Main Still Picture profiles of HEVC (including intra-only profiles), utilizing a bit depth of either 8 bits or 10 bits per sample YCbCr with 4:2:0, 4:2:2 or 4:4:4 chroma subsampling. 1 English, with English and Spanish subtitles! Encoded using the time consuming 2 pass, 10 bit color at 5000 kbps, from a Blu-ray source, for the highest quality possible. Description. You are set to go. Bit depth : 10 bits Bits/(Pixel*Frame) : 0. 5× for 12-bit profiles and 2× for 16-bit profiles. 024 Stream size : 217 MiB (79%) Writing library : x265 2. Please let me know if you need any further clarification, thanks. mkv Writing application : Lavf58. 1 - ArcX)[TAoE]. The Sandlot 1993 20th Anniversary Edition in 1080p, encoded with x265 in HEVC and AAC 5. It does not use B-Frames in its default GOP structure and is recommended for use in a computer with 8 GB of RAM. mkv Writing application : Lavf58. 1 x265 10 Bit) torrent or any other torrent from Highres Movies category. 10-bit x264 & x265 Post by Zeranoe » Tue Feb 06, 2018 1:06 pm FFmpeg recently added support to encode to 8-bit and 10-bit for x264 and x265 within the same executable. Bit depth : 10 bits Bits/(Pixel*Frame) : 0. image Any questions, or help playing this file, click on the HEVC banner just above. 100 Writing library : Lavf58. Default all--seek First frame to encode--[no-]interlace Indicate input pictures are interlace fields in temporal. 9+3 – all of them failed to download (tojan: Win32/Spursint. 5× for 4:2:2 profiles and 2× for 4:4:4 profiles. Please let me know if you need any further clarification, thanks. FFMPEG x265 10bit and virtualdub x265 10bit settings + Reply to Thread. Direct download via HTTP available as well. Bird Box (2018) on IMDb: Movies, TV, Celebs, and more. x265 source code is available for developers who would like to contribute to the project, or build open-source applications under the terms of the GNU GPL v2 license. I compiled libx265 statically with support for bit depths 8, 10, and 12. 1 - Goki)[TAoE]. 55 GiB (91%) Writing library : x265 3. 0), then the output is. there isn't one GUI out there to decently decode vids with the H. For the Intra profiles the maximum bit rate increases by 2×. Overall bit rate : 4 452 kb/s Encoded date : UTC 2018-10-26 15:51:58 Writing application : mkvmerge v24. 63 GiB (82%) Writing library : x265 3. Well, HEVC encoding is the encoding standard used for 4K UHD Blu-rays, so it could be equal, but you’re missing some information. 9+3 GCC 64 bit 12 bit 1. Download the Despicable Me 2010 2160p BluRay x265 10bit HDR DTS-X 7 1-DEPTH Torrent for Free with TorrentFunk. Simple x264/x265 Launcher on 32-bit and 64-bit PCs. 265 and MPEG-H Part 2, is a video compression standard designed as part of the MPEG-H project as a successor to the widely used Advanced Video Coding (AVC, H. Fecha de ingreso Jan 2018 Mensajes 1,897 Gracias 4,707 Recibió 35,899 gracias en 1,206 posts. There is a big difference between 10 bit and 8 bit color. Download Air Bud - The Complete Collection (1997-2003) 1080p 10bit WEBRip x265 HEVC [Org DD 2. - x265 encoder quality improvements, especially when using tune grain - High bit depth encoding support via external shared libraries (video pipeline is still 8-bit 4:2:0) - x264 10-bit - x265 10-bit and 12-bit Audio - Opus audio encoding/decoding via libopus - Passthru now supports E-AC-3, FLAC, and TrueHD audio formats Subtitles. x264 AVC 10-Bit (color depth) encoded files - PASS.