Index Of Metallica Flac

2MHz/256fs Download DSD (Single Rate) 2. 05/02/2009 DEAD KENNEDYS - SPEND JULY 4th. Metallica – Kill ‘Em All (Remastered) (2020) Metallica – Master of Puppets (Remastered) (2020) Metallica – Ride the Lightning (Remastered) (2020) Metallica – Olympiastadion, Berlin, Germany July 6, 2019 (2019) Metallica – Live at Woodstock (2019) Metallica – For Whom The Bell Tolls (Live) (2019) Metallica – Helping Hands…. We'll Be Together Again 09. net | live music downloads mp3 flac The first 10000 fans to register at MatisyahuLive. 19Mb: September 10 2007: Metallica - Bootleg Tracks - 07 - Imperial March. mp3 Jump in the Fire. It is open source and free of patents. As you might think, parameters in this example means, that the track numbers will be forced to a length of 2 digits and numbers less than 10 are filled up with "0". 1 hz,16 bit---Flac versiyonu. The single was released as a CD maxi on June 2, 2000 under the Hollywood Records label. Title: Bodacious! RAR Size: 242 Mb Tracklist & Download Links. >>506483931 doombro reporting in here, the whole "i didnt know my $60 soundtrack came with a game" meme turned the norms onto it. wav" WAVE TRACK 05 AUDIO TITLE "Dream No More" PERFORMER "Metallica" REM COMPOSER "" INDEX 01 00:00:00 FILE "06 - Halo On Fire. Search and download music album covers. [Flac] Heavy Metal + Cue - Progetto TNTMetal Autore: MotorHeadTitolo: DiscografiaAnno: Anni 1977-2010Genere: Heavy MetalELENCO ALBUM: 1977 Motorhead 1979 Overkill 1979 Bomber 1979 On Parole 1980 Ace Of Spades 1982 Iron Fist 1983 Another Perfect Day 1986 Orgasmatron 1987 Rock'n'Roll 1991 1916 1992 March Or Die 1993 Bastards 1995 Sacrifice 1996 Overnight Sensation 1998 Snake Bite Love 2000 We. Here at Allflac. Audio CDs are labeled by red color, other shows are in mp3 format. 39 MB | File count : 1 | Time : 2015-08-14. Select Mix Freestyle Tracks Volume 1. If by HD FLAC you mean a hi-resolution flac, you can convert the ripped CD to a higher bit depth and sample rate, but you won't gain anything, e. 2: Metal: Free Lossless Audio Codec: Badlands - Dreams In The Dark. Sino tambien puedes buscar en Taringa!. On this release, Metallica's select favorites unfold like never before with the eloquent backing of The San Francisco Symphony. Ty Pendlebury. October 2013, 0:27. flac" WAVE TRACK 01 AUDIO TITLE "Battery" PERFORMER "Metallica" REM COMPOSER "Metallica" INDEX 01 00:00:00 TRACK 02 AUDIO TITLE "Master Of Puppets" PERFORMER "Metallica" REM COMPOSER "Metallica" INDEX 01 05:12:27 TRACK 03 AUDIO TITLE "The Thing That Should Not Be". mp3: 26-Jul-2008 19:49 : 9. to is the largest czech cloud storage. Get access to over 600 exclusive live recordings with a nugs. Quality: FLAC 16 bit / 44. >>506483931 doombro reporting in here, the whole "i didnt know my $60 soundtrack came with a game" meme turned the norms onto it. Nope, iTunes only supports audio like mp4, wav, aiff. The Shortest Staw 06. Amazon| Homepage NFO | Torrent | Usenet. Metallica Metallica (Black Album) 2001 DVD Audio RIP Формат FLAC: 48000 Hz 24 bits 6 channels 01. The band has won nine Grammy Awards, and has had five consecutive albums debut at number one on the Billboard 200, making Metallica the first band to do so; this record was later matched by the Dave Matthews Band. The DSD was sourced from the PCM. flac w/ verify) Notes: This rip was created because of the backlash over the sound quality of the official release of Death Magnetic. 2 - Georg Solti London Symphony Orchestra and Chorus (Pure DSD) Cootie Williams in Stereo - Cootie Williams on Trumpet and his Orchestra (Pure DSD) John Coltrane Quartet Ballads. Album information. Bank Stadium, Minneapolis, MN MP3 FLAC. Moderator: veno 16 topics • Page 1 of 1. Fade To Black (6:56) 5. For Whom The Bell Tolls [04:26] 03. Fade To Black 05. Metallica has since been certified 16 times platinum by the RIAA. Narzędzia forum. 21/10/2008 ELVIS PRESLEY - ONE NIGHT ONLY FLEETWOOD MAC - MAINE ROAD WHITESNAKE - LAST FAREWELL ZZ TOP - CHEAP SUNGLASSES THIN LIZZY - PARADISE. 2: Metal: Free Lossless Audio Codec: Badlands - Dreams In The Dark. Davis Rockfluence / PianotariumЖанр: Piano Год издания диска: 2006-2007 Издатель (лейбл): Scovis Music Productions Страна: Калифорния (родился в Германии) Аудиокодек: FLAC (*. metallica flac rutracker. Hardwired 2. mp3 06 - Escape. 1 kHz, similar to CD quality), as well as high resolution (24-Bit Hi-Res). Artist: Burning Witches Title Of Album: Dance With The Devil [Japanese Edition] Year Of Release: 2020 Label (Catalog#): Ward Records, Inc. flac" FLAC TRACK 01 AUDIO TITLE "Enter Sandman" PERFORMER "Metallica" INDEX 01 00:01:70 TRACK 02 AUDIO TITLE "Sad But True" PERFORMER "Metallica" INDEX 01 05:33:30 TRACK 03 AUDIO. Several formats are available for downloads (FLAC, ALAC, AIFF, WMA, WAV). February 15, 2020. 1kHz, CD-Format | Full Scans Included Label: Mobile Fidelity Sound Lab | Cat#: MFSL 1-102. 1kHz to a flac file (lossless). its mediocre at best save a few tracks(2016) same with eternals ost only a few tracks are nice the rest sounds like a glass jar sliding on guitar strings thrown into a mixer. 2007 - For Emma, Forever Ago {2008 Jagjaguwar 115} - 25-Jan-2016 06:27. This album from Metallica has much controversy about how it was engineered, you can read about it for yourself if you want. Download album by Metallica with San Francisco Symphony Orchestra - S&M (2000) DTS 5. See the Audio BT Seeding Policy and Audio BT Seeding Guide for reference. Jimi Hendrix Band Of Gypsy Flac. Dead Girls of London. Download index of metallica using General-Search. 10/22/2016 Metallica, Linkin Park , Korn, Wild Cherry, Nine Inch Nails, Styx, Slayer, Chevelle, Incubus, Deftones, Megadeth and many many others. 67 GB Metallica were easily the best, most influential heavy metal band of the '80s and '90s. metallica bootlegs from 1991 hosted on extabit, rapidgator, rapidshare, lumfile, netload, uploaded and torrent with keygen, crack and serial. wav Pre-gap length 0:00:01. Victorius - Space Ninjas From Hell (2020) [FLAC] February 18, 2020. Select Mix Hot Tracks Dance Vol. Filename D:RIPCamille And Kennerly - Harp Attack (2013) [FLAC]03 Nothing Else Matters [Metallica]. Bach - Suites for Cello Unaccompanied. If by HD FLAC you mean a hi-resolution flac, you can convert the ripped CD to a higher bit depth and sample rate, but you won't gain anything, e. mp3 05 - Trapped Under Ice. For Whom The Bell Tolls [04:26] 03. So maybe the 10000 days lp you saw on ebay could have been a L. - Garage Days Re-Revisited (2018) flac 3200 Kbps iNFO: Nome Del File: Metallica-The 5. 74 GB Metallica - Master of Puppets [Remastered] [1986-2017] FLAC 388 MB. Enjoy the music!. metallica flac слушать. (disc 1: New Recor; Metallica - S and M; Metallica - St. Browstone 4:02 08. flac > flac_headers. Aetoms - Mathématiques, Métal & Mister Freeze WMA album ZIP archive. Today, 09:36 musician. Dedicated to live performances and their respective recordings, along with details. 1kHz to a flac file (lossless). This is similar to how Zip works, except with FLAC you will get much better compression because it is designed specifically for audio, and you can play back compressed FLAC files in your favorite player (or your car or home stereo, see. Tennis - Swimmer (2020) Hi-Res. The single was released as a CD maxi on June 2, 2000 under the Hollywood Records label. Several formats are available for downloads (FLAC, ALAC, AIFF, WMA, WAV). The first track is a never before released demo from Little Boy Blue & The Blue Boys. The Haitian Slam 05. mp3 2268 K 21/08/2004 17:06:57 audio/mpeg Metallica - Fade To Black. zip files 2) extracted all files from. Metallica – Kill ‘Em All (Remastered) (2020) Metallica – Master of Puppets (Remastered) (2020) Metallica – Ride the Lightning (Remastered) (2020) Metallica – Olympiastadion, Berlin, Germany July 6, 2019 (2019) Metallica – Live at Woodstock (2019) Metallica – For Whom The Bell Tolls (Live) (2019) Metallica – Helping Hands…. IMAX 3D is the way to go! Almost everyone was amped in the theater and we were all pretty much rocking in our seat and singing along. I am a very big fan of music and so love to hear songs in CD format rather than mp3 format. FLAC is a Free Lossless Audio Codec developed by Josh Coalson. mp3: Autograph: Turn Up the Radio: Monsters of Rock, Metal: MPEG 1 Layer III: Badlands - Dreams in the Dark. 1 kHz / 16 Bit Source: SHM-CD Japan Album Artist: Metallica Album Name: Discography Label, Catalog: Universal Music. flac" FLAC TRACK 01 AUDIO TITLE "Enter Sandman" PERFORMER "Metallica" INDEX 01 00:01:70 TRACK 02 AUDIO TITLE "Sad But True" PERFORMER "Metallica" INDEX 01 05:33:30 TRACK 03 AUDIO. Mastered by George Marino at Sterling Sound from the original master tapes to vinyl and PCM. Bill Evans Trio ‎- At Shelly's Manne-Hole, Hollywood, California (Pure DSD) Duke Ellington: Indigos. Downloads will not work on mobile devices like an iPhone or iPad. FLAC stands for Free Lossless Audio Codec, an audio format similar to MP3, but lossless, meaning that audio is compressed in FLAC without any loss in quality. (FLAC) Metallica - May 11, 1989 - Sangyo Bunka Kaikan - Kawasaki, JPN (AUD) Started by JumpInTheFire. Recent Entries; 1999-08-28 · Roger Waters @ Kemper Arena, Kansas City · Every Point Of Light · 2 days ago; 1999-08-28 · Roger Waters @ Kemper Arena, Kansas City · Each Small Candle · 3 days ago; 1999-08-18 · Roger Waters @ Coca-Cola Star Lake Amphitheater, Burgettstown · Starlake Amphitheater · 7 days ago; 1999-08-18 · Roger Waters @ Coca-Cola Star Lake Amphitheater, Burgettstown. Dancing With The Lion. flac" FLAC TRACK 01 AUDIO TITLE "Enter Sandman" PERFORMER "Metallica" INDEX 01 00:01:70 TRACK 02 AUDIO TITLE "Sad But True" PERFORMER "Metallica" INDEX 01 05:33:30 TRACK 03 AUDIO. All links to content are provided from other servers and are not affiliated with this website. Jimi Hendrix Band Of Gypsy Flaca Jimi Hendrix Band Of Gypsy Flacka. Artist: Burning Witches Title Of Album: Dance With The Devil [Japanese Edition] Year Of Release: 2020 Label (Catalog#): Ward Records, Inc. Nenhum comentário: Postar um comentário. Anger; Metallica - - 2 x 4. 8 % Range quality 100. 1513 downloads at 19 mb/s. Freeze Frame is a 1979 album by Godley & Creme. Hørdür Grindcore/Death _ hordurgrind gmail com _ Ben : Guitar/Vox Ugo : Drums Chris : Vox _ FREE MUSIC ! DON'T PAY DIGITAL Húbris, released 11 November 2018 1. Skip to content. Parent Directory - 001) Led Zeppelin - Stairway to Heaven. Album ini bertahan 50 minggu dalam Billboard Top 200. So maybe the 10000 days lp you saw on ebay could have been a L. 100 Hits Rock Anthems (2011) 0. Exact Audio Copy V1. Autor: Metallica Title: Master of Puppets Year: 1986 Genre: Metal Label: Elektra, Music for Nations 01 - Battery - 5:12 02 - Master of Puppets - 8:35 03 - The Thing That Should Not Be - 6:36 04 - Welcome Home (Sanitarium) - 6:27 05 - Disposable Heroes - 8:16 06 - Leper Messiah - 5:40 07 - Orion (Instrumental) - 8:27 08 - Damage, Inc. mp3; find more on google or on amazon Impressum. February 7, 2020: The latest addition to the Vault is up, check out the 2003 show from just outside of Salt Lake City at the USANA Ampitheatre. Metallica / Ride the Lightning XWAR452100F96 $17. Started by JumpInTheFire. Although it concentrates on the best bootlegs I have downloaded in the last five years, the same sites and addresses used are where the bootlegs in the 100 greatest listing originated from. Harvester Of Sorrow 07. In most cases there are also 5. No Remorse [04:25] 04. 1 kHz (Tracks) Artist: Ben Noble. 36 MB Metallica - The Day That Never Comes (Latest Single From The new album ). All of our applications are compatible with the highest sound quality. metallica best flac. Sophisticated Lady 10. Origins 02. com can download free live Download Metallica's first performance of "Cyanide" from the upcoming Death nugs. metallica flac слушать. For Whom The Bell Tolls 04. 2 - Georg Solti London Symphony Orchestra and Chorus (Pure DSD) Cootie Williams in Stereo - Cootie Williams on Trumpet and his Orchestra (Pure DSD) John Coltrane Quartet Ballads. 74 GB Metallica - Master of Puppets [Remastered] [1986-2017] FLAC 388 MB. 2 posts in this topic KL Bot. Formats: Bandcamp. 4 GB 2019-01-13 7 1 Metallica - The Best of the Best 2017 (2017) MP3. The 225 best bootlegs available via download, 2015-19 5 years - 130 different artists The posts #1 to #100 were mostly made from downloads prior to 2015. In Belgium and Italy, the song was released by Edel-Mega Records. By admin flac-music 2020, Hi. The Struggle Within. Mp3 is a compressed version of the original recorded CD. Cue) Lossless] с торрент трекера underver. - Garage Days Re-Revisited (2018) flac 3200 Kbps iNFO: Nome Del File: Metallica-The 5. Metallica received critical acclaim upon its release. Recording #378. De la violence brute de Battery à l'instrumental et jazzy Orion (un des plus. Deneme amaçlı Flac indiriyorum ama bryan adams 320kb lik bir Mp3 indireyim dedim. Notes: Sister site of Downloads Now!. MP3 of this album). It might be my favorite Metallica. Fuel [03:58] 02. Also i was wondering, if the site says free mp3 music download, does that mean that i can download it and put it to cd?. Metallica / Master Of Puppets (1995 USA Elektra 9 60439-2). 21Kb: May 27 2007. @Panama Jack got the scoop on these and was kind enough to let us know. Fade To Black 05. Metallica is an American heavy metal band. flac" FLAC TRACK 01 AUDIO TITLE "Enter Sandman" PERFORMER "Metallica" INDEX 01 00:01:70 TRACK 02 AUDIO TITLE "Sad But True" PERFORMER "Metallica" INDEX 01 05:33:30 TRACK 03 AUDIO. Anger FLAC 88kHz/24bit Download (1) FLAC 48kHz/24Bit Download (1) Change how search results are displayed. Learn how to download music and how to burn music. MQA and FLAC are lossless encodings derived directly from our original production masters. Free Lossless Audio Codec: Autograph - Turn Up The Radio. We are very active players and love to play and write. com you can download lossless music in popular formats FLAC, APE, ALAC, MP3, M4A. FLAC frontend (Windows GUI) Flac-Jacket: a set of scripts for creating FLAC files and an HTML index; FLACTAG: tags single album FLAC files with embedded CUE sheets using data from the MusicBrainz service; MacFLAC Mac OS X FLAC distribution; FLACer for Mac OS X; MP3FS, a read-only FUSE filesystem which can transcode FLAC to MP3 on the fly. Tinsel Town Rebellion. Ride The Lightning 03. Attention légende ! « Master of Puppets » est un album culte, de ceux qui ont influencé (et qui continuent de le faire) toute une génération de musiciens dans le monde entier. com which has many albums and concerts available in FLAC format. Don't Bother Me - 02:33 05. Metallica - Through the Never (2013) FLAC. 625 videos Play all HQ/Flac Music Guido Life Eva Cassidy - autumn leaves (cover by Angelika Gil) (Studio M Opole) - Duration: 5:17. 2007 - For Emma, Forever Ago {2008 Jagjaguwar 115} - 25-Jan-2016 06:27. Fixed a bug where decoding a FLAC file whose total_samples==0 in the STREAMINFO would corrupt the WAVE header. Prince 'Graffiti Bridge Demos' Recorded In Studio 1989 Studio Soundboard Recordings Encoded: FLAC File Format & [email protected] Kbps. You can rip a standard audio CD, 16-bit, 44. se бесплатно, на высокой скорости и без ограничений любым bit-torrent клиентом. Through The Never 08. Quest For Heritage 03. 6 % Extraction speed 3. 02 KB Metallica - Greatest Hits Volume 2 CD1/Metallica - That Was Just Your Life. com you can download lossless music in popular formats FLAC, APE, ALAC, MP3, M4A. Anger; Metallica - - 2 x 4. Tematy na forum. Download surround and lossless music | DVD-Audio, DTS-CD, SACD, Audio-DVD, DTS 5. 3 is a major release with improved compression, improved cover art and multichannel support, better recovery for corrupted files, many new features and options in the command-line tools, and several bug fixes. Metallica, never resting, never ceasing to innovate or amaze, returns with an extraordinary document of their concert with the San Francisco Symphony, available as a double album, a DVD and a VHS. to - Homeland Security Investigations. Country: USA Year: 1984 Record Label: Elektra Records Catalog Number: 9 60396-2 Music Genre: Thrash Metal Rip Format: FLAC (Image + Cue + Log) Booklet Scans: Yes Rip Quality: Lossless Size Archive: ~ 356 MB Host: yadisk Password: No Tacklist:. The Struggle Within. 1kHz, CD-Format | Full Scans Included Label: Mobile Fidelity Sound Lab | Cat#: MFSL 1-102. FLAC and a VBR. Metallica – Kill ‘Em All (Remastered) (2020) Metallica – Master of Puppets (Remastered) (2020) Metallica – Ride the Lightning (Remastered) (2020) Metallica – Olympiastadion, Berlin, Germany July 6, 2019 (2019) Metallica – Live at Woodstock (2019) Metallica – For Whom The Bell Tolls (Live) (2019) Metallica – Helping Hands…. mp3: Badlands: Dreams in. H1P2<110>QDL56401. He Who Saw The Light 08. 50+ videos Play all Mix - [HQ-FLAC] Metallica - The Unforgiven YouTube Metallica - Fade to Black - Electric Guitar Cover by Kfir Ochaion - Duration: 6:45. flac 2014-11-19 23:43 2. Smart Automatic Cover Art Downloader. April In Paris 11. Metallica is an American heavy metal band from Los Angeles, Califor Metallica - Discography [FLAC] menu IBit - Verified Torrent Search Engine. My Friend Of Misery 12. Downloads will not work on mobile devices like an iPhone or iPad. Ty Pendlebury. The band embarked on a two-year tour in support of the album. If by HD FLAC you mean a hi-resolution flac, you can convert the ripped CD to a higher bit depth and sample rate, but you won't gain anything, e. 8 MB) 05 - Disposable Heroes. 1 Khz--MP3 versiyonu 1015 kb/s, 44. 3 MB) Master of Puppets. Metallica / Master Of Puppets (1995 USA Elektra 9 60439-2). Скачать торрент (Symphonic Metal, Modern Classical) Apocalyptica - Plays Metallica By Four Cellos (1996) [FLAC (Tracks+. flac" WAVE TRACK 01 AUDIO TITLE "Battery" PERFORMER "Metallica" REM COMPOSER "Metallica" INDEX 01 00:00:00 TRACK 02 AUDIO TITLE "Master Of Puppets" PERFORMER "Metallica" REM COMPOSER "Metallica" INDEX 01 05:12:27 TRACK 03 AUDIO TITLE "The Thing That Should Not Be". Victorius - Space Ninjas From Hell (2020) [FLAC] February 18, 2020. Digital audio compressed by FLAC’s algorithm can typically be reduced to 50–60% of its original size[4] and decompressed to an identical copy of the original audio data. It allows iTunes to directly open FLAC files. Star Cycle 03. 0 beta 3 from 29. > 28-Nov-2004 01:02 1. Intro to A String Quartet. Anger; Metallica - - 2 x 4. He Who Saw The Light 08. Country: USA Year: 1984 Record Label: Elektra Records Catalog Number: 9 60396-2 Music Genre: Thrash Metal Rip Format: FLAC (Image + Cue + Log) Booklet Scans: Yes Rip Quality: Lossless Size Archive: ~ 356 MB Host: yadisk Password: No Tacklist:. If you're looking to buy lossless music in FLAC format, from indie to classical to jazz, here are our favorite sites. 2M Six Feet Under - Ame. En 1987, el extinto sello canadiense FREEDOM IN A VACUUM lanzaba esta compilación homónima repleta de trabajos de grandes artistas sonoros: TIBETAN RED, ASMUS TIETCHENS, UNKOMMUNITI, THE SODALITY, PSYCLONES, SCHLAFENGARTEN, NURSE WITH WOUND, HIRSCHE NICHT AUF'S SOFA, DOKA BASS BAND. - We do not take requests. I bought some FLAC files (Metallica at Yankee Stadium from the Metallica website) and want to play them in iTunes. Anger; Metallica - - 2 x 4. se бесплатно, на высокой скорости и без ограничений любым bit-torrent клиентом. 74 GB Metallica - Master of Puppets [Remastered] [1986-2017] FLAC 388 MB. 28 GB / 474 MB. The Art Garfunkel Album. 1 kHz (Tracks) Artist: Die Toten Hosen Title: "Zuhause Live: Das Laune der Natour-Finale" plus "Auf der Suche nach der Schnapsinsel: Live im SO36" Released: 2019 Style: Rock RAR Size: 2. Metallica received critical acclaim upon its release. Related Blog Posts. It might be my favorite Metallica. Metallica - 2008 - Death Magnetic [FLAC] {2010 SHM-CD Cardboard Sleeve,Limited Release, UICY94674} 01 - That Was Just Your Life. Find Metallica discography, albums and singles on AllMusic. If you listen to Metallica mostly digitally, you need to listen to. 0 % EAC extraction logfile from 4. Audio Torrents Only FLAC, SHN, and APE files are to be seeded in this forum. Metallica is an American heavy metal band. You can read the FLAC file header blocks by using, "metaflac --list file. Credit allows you to download with unlimited speed. flac) Тип. FLAC-HD & ALAC-HD files are 24-bit. Intro to A String Quartet. Download Metallica August 20, 2016, U. (disc 1: New Recor; Metallica - S and M; Metallica - St. If you want to download the entire concert in FLAC, the easiest way is to use the "Lossless zip" link located on the left side of the page where it says, "Play / Download. By admin flac-music 2020, Hi. You can read the FLAC file header blocks by using, "metaflac --list file. > 09-Dec-2004 16. The single was released as a CD maxi on June 2, 2000 under the Hollywood Records label. 10/22/2016 Metallica, Linkin Park , Korn, Wild Cherry, Nine Inch Nails, Styx, Slayer, Chevelle, Incubus, Deftones, Megadeth and many many others. 09/12/2008 HEART - SECRET HEART ILLUSTRATED. My Friend Of Misery 12. Freeze Frame is a 1979 album by Godley & Creme. Peak level 98. 02 - Master of Puppets. (FLAC) Metallica - May 11, 1989 - Sangyo Bunka Kaikan - Kawasaki, JPN (AUD) Started by JumpInTheFire. 02 - Master of Puppets. The band has won nine Grammy Awards, and has had five consecutive albums debut at number one on the Billboard 200, making Metallica the first band to do so; this record was later matched by the Dave Matthews Band. Say It Isn’t So 12. FILE "Metallica - Metallica. We are very active players and love to play and write. com you can download lossless music in popular formats FLAC, APE, ALAC, MP3, M4A. 98: Metallica / St. Quality: FLAC 16 bit / 44. Grossly oversimplified, FLAC is similar to MP3, but lossless, meaning that audio is compressed in FLAC without any loss in quality. You may have to register before you can post: click the register link above to proceed. Album ini bertahan 50 minggu dalam Billboard Top 200. If by HD FLAC you mean a hi-resolution flac, you can convert the ripped CD to a higher bit depth and sample rate, but you won't gain anything, e. 115116 rapidshare intitle index of mp3 links available for free instant download. mp3 Am I Evil?mp3 Blitzkrieg. 96 FLAC] VA - Classical Browse and Download any. com can download free live Download Metallica's first performance of "Cyanide" from the upcoming Death nugs. Fight Fire With Fire (4:44) 2. mp3: 26-Jul-2008 19:50 : 1. hemen hemen fark yok gibi? Ya kulak 320kb sonrasını farketmiyor, ya bu FLAC ler biraz abartma 320 kb/s, 44. Yo uso "bitcomet" para bajar torrents, a traves de los torrents puedes bajas discos completos en mp3 o en Flac. 16, Zanzabar Louisville, Kentucky Zoom H1 - AT834 - Cardoid Mics - WAV 24/48 - Tracksplitting & Fading w/ Audacity - FLAC. Pada tahun 1984, Metallica semakin besar dengan menerbitkan album Ride the Lightning. Metallica has since been certified 16 times platinum by the RIAA. Aetoms - Mathématiques, Métal & Mister Freeze FLAC album ZIP archive. Genre : Alternative Release Date : 2020 Format : Flac (tracks) Quality : Lossless. Ginette Reno – The First Noel (2007/2014) [FLAC 24bit/44,1kHz] Posted 8 mins ago. The band's fast tempos, instrumentals, and aggressive musicianship made them one of the founding "big four" bands of thrash metal, alongside Megadeth, Anthrax, and Slayer. The Alan Parsons Project - Ammonia Avenue (1984) {2020, Super Deluxe Edition, Remastered, Remixed, 3CD + BD + Hi-Res} EAC Rip | 3x CDs | FLAC Image + Cue + Log. com can download free live Download Metallica's first performance of "Cyanide" from the upcoming Death nugs. 6 % Extraction speed 3. 02 KB Metallica - Greatest Hits Volume 2 CD1/Metallica - That Was Just Your Life. For Whom The Bell Tolls [04:26] 03. Don't Cry 5. JUMP IN THE FIRE. Fixed a bug with --skip and AIFF-to-FLAC encoding. Downloads will not work on mobile devices like an iPhone or iPad. Metallica is the group's best-selling album to date, selling more than 22 million copies worldwide. For more information on the format, see the FLAC homepage at SourceForge. Bach - Suites for Cello Unaccompanied. El grupo se constituyó originalmente bajo el nombre de "Jeff Killed John" en 1998, versionando canciones de Metallica y Nirvana. 06 GB Metallica Discography [17 albums] [1983 2019] [FLAC] [TRACKS + CUE] 9. muzyka bezstratna. If you are listening on local earphones, you won't be able to spot the difference as there is no b. To download, you must be on a desktop computer or laptop. flac 2014-11-19 23:43 2. 02 KB Metallica - Greatest Hits Volume 2 CD1/Metallica - That Was Just Your Life. Eye Of The Beholder 04. 2007 - For Emma, Forever Ago {2008 Jagjaguwar 115} - 25-Jan-2016 06:27. FLAC (; Free Lossless Audio Codec) is an audio coding format for lossless compression of digital audio, and is also the name of the reference codec implementation. Wax Tailor - By Any Beats Necessary (2016) [FLAC] February 18, 2020. PERFORMER "Metallica" INDEX 01 08:15:27 TRACK 03 AUDIO TITLE "Welcome Home (Sanitarium)" PERFORMER "Metallica" INDEX 00 18:37:24 INDEX 01 18:37:25 TRACK 04 AUDIO TITLE "Cliff Burton Bass Solo" PERFORMER "Metallica" INDEX 00 25:09:64 INDEX 01 25:09:65 TRACK 05 AUDIO TITLE "Damage, Inc. I came across www. 1513 downloads at 19 mb/s. 1A CK45154 05 A. to is the largest czech cloud storage. 00 KB Metallica - Greatest Hits Volume 1 CD2/Metallica - Master of Puppets. exe Filename E:\bki71\Metallica\Bootlegs\Metallica - First U. Audiophile Classical Collection Various Artists. Audio Torrents Only FLAC, SHN, and APE files are to be seeded in this forum. Mahler Symphony No. This is similar to how Zip works, except with FLAC you will get much better compression because it is designed specifically for audio, and you can play back compressed FLAC files in your favorite player (or your car or home stereo, see. Colérique à souhait, cet album sonne comme la délivrance d'un groupe dont les incessantes polémiques, depuis " Load ", avaient fini par user les différents membres. mp3 02 - Ride The Lightning. If you listen to Metallica mostly digitally, you need to listen to. Any complete CD albums, whether in multiple files or single file archive (e. 1kHz, CD-Format | Full Scans Included Label: Mobile Fidelity Sound Lab | Cat#: MFSL 1-102. flac" WAVE TRACK 01 AUDIO TITLE "Die, Die My Darling" PERFORMER "Metallica" INDEX 01 00:00:00 TRACK 02 AUDIO TITLE "Sabbra Cadabra (Live)" PERFORMER "Metallica" INDEX 00 02:27:42 INDEX 01 02:29:57 TRACK 03 AUDIO TITLE "Mercyful Fate (Live)" PERFORMER "Metallica". Metallica has since been certified 16 times platinum by the RIAA. GRAM CD 004 MPO 01. 55GB CD01 Master Of Pupets (Remastered) 01. Select Mix Freestyle Tracks Volume 1. Index of /HDD1/노래/노래/팝송/팝송 1001 Greatest 1990's music hit singles [FLAC]/. Tracklist: 1. Metallica is the group's best-selling album to date, selling more than 22 million copies worldwide. cue FORMATO: 16/44. 98: Metallica / Kill 'Em All XWAR452162F96 $17. Deneme amaçlı Flac indiriyorum ama bryan adams 320kb lik bir Mp3 indireyim dedim. Comments Off on Globe Unity Orchestra - Intergalactic Blow (2019) [FLAC 24bit/96kHz] Hi-Res Digital Download. "Ride the Lightning" with musical icons Metallica and over 20 other rock ing acts in an all new Guitar Hero experience -- Guitar Hero: Metallica. 1A CK45154 05 A. Don't Bother Me - 02:33 05. Fight Fire With Fire 02. Kill The Trolls 07. wav Pre-gap length 0:00:01. Of Wolf And Man 10. You will hear the difference only on high quality equipment. Hi-Res Digital Download. com QQ:2031114701. Recording #378. 7 MB) 03 - The Thing That Should Not Be. Scene FLAC Music, muzik, musik scene Club, sets mix, music mp3s, WEB 320kbps Tracks, Private FTP Server, Muaix VIP, Dance Hits, 90s Various artists VA, EDM Live Radio, Music Stream, Electro House, Club Dance Music Mix, Electro House, Deep House, Chill Out, Trap, Bounce and much more. KL Bot Post. 4 GB 2019-01-13 7 1 Metallica - The Best of the Best 2017 (2017) MP3. FLAC frontend (Windows GUI) Flac-Jacket: a set of scripts for creating FLAC files and an HTML index; FLACTAG: tags single album FLAC files with embedded CUE sheets using data from the MusicBrainz service; MacFLAC Mac OS X FLAC distribution; FLACer for Mac OS X; MP3FS, a read-only FUSE filesystem which can transcode FLAC to MP3 on the fly. FLAC can reduce the size of a typical audio file by up to 50%. Davis Rockfluence / PianotariumЖанр: Piano Год издания диска: 2006-2007 Издатель (лейбл): Scovis Music Productions Страна: Калифорния (родился в Германии) Аудиокодек: FLAC (*. The key word in FLAC is "lossless," which means that audio is encoded in FLAC without losing any of the frequency response, dynamic range or timbre of the original signal. Get access to over 600 exclusive live recordings with a nugs. It supports streaming audio for playback of very large files, and also supports 24-bit audio. Bertice Reading. 1 3107-2 SRC-04. The band embarked on a two-year tour in support of the album. x) ist das aber kein großes Problem, da diese eine entsprechend aktuelle FLAC-Library verwenden, welche wesentlich schneller ist als. No Remorse [04:25] 04. 42 MB Metallica - Greatest Hits Volume 1 CD2/Metallica - Master of Puppets. Early Day Miners - Placer Found (20th Anniversary Edition) (2020) FLAC (tracks) 24-bit/44,1 kHz | Time - 01:01:22 minutes | 649 MB | Genre: Alternative, Indie. its mediocre at best save a few tracks(2016) same with eternals ost only a few tracks are nice the rest sounds like a glass jar sliding on guitar strings thrown into a mixer. - 5:32 Master of Puppets is the third studio. We only index and link to content provided by other sites. 98: Metallica / HardwiredTo Self-Destruct XWAR452230F44 $21. Artist: James Moody Title: Over the Rainbow (The Best Of) Year Of Release: 2008 Label: Werner Last's Favourites Jazz Genre: Jazz Quality: MP3 320 kbps / FLAC (tracks) Total Time: 01:09:51 Total Size: 162. Browse the entire Metallica music catalog. Simple Plan - Shut U. Anger; Metallica - - 2 x 4. to is the largest czech cloud storage. Notes: Sister site of Downloads Now!. 1 versions of the same album on the disc (Metallica "black" album, deep purple "machine head" etc). (FLAC) Metallica - May 11, 1989 - Sangyo Bunka Kaikan - Kawasaki, JPN (AUD) Started by JumpInTheFire. Harvester Of Sorrow 07. See the Audio BT Seeding Policy and Audio BT Seeding Guide for reference. Learn how to download music and how to burn music. You may have to convert the files to MP3 first; I'm pretty sure the freeware app Switch will do this, as can MediaCoder (also free). 1-1 Nothing Else Matters 1-2 Master Of Puppets 1-3 I Disappear 1-4 The Unforgiven 1-5 For Whom The Bell Tolls 1-6 Whiskey In The Jar 1-7 Fade To Black 1-8 Ride The Lightning 1-9 Mama Said 1-10 Fuel 1-11 Turn The Page 1-12 Die, Die My Darling 1-13 The Unforgiven II 2-1 Enter Sandman 2-2 One 2-3 The Memory Remains 2-4 Hero Of The Day 2-5 Wherever I May Roam 2-6 Until It Sleeps 2-7 Welcome Home. Country: USA Year: 1984 Record Label: Elektra Records Catalog Number: 9 60396-2 Music Genre: Thrash Metal Rip Format: FLAC (Image + Cue + Log) Booklet Scans: Yes Rip Quality: Lossless Size Archive: ~ 356 MB Host: yadisk Password: No Tacklist:. 6M: 003) Lynyrd Skynyrd - Freebird. Album information. Upload, share, search and download for free. It Won't Be Long - 02:18 02. Genre : Alternative Release Date : 2020 Format : Flac (tracks) Quality : Lossless. Index of /HDD1/노래/노래/팝송/팝송 1001 Greatest 1990's music hit singles [FLAC]/. Index of /mp3 / Metallica / Komm hier zur Metal Single Community! Search: Metallica - - Whiskey in the Jar. Gorgoroth-Destroyer - Incipit Satan-Reissue-CD-FLAC-2008-SCORN Description : SCORN —- since 2011 Gorgoroth - Destroyer - Incipit Satan. September 1985, Metallica memproduksi album Master Of Puppets. It supports a very free form Vorbis comment system for metadata and embedded CueSheets. Band Name: Metallica Album Title: Black Album Total Playing Time: 01:02:38 Min. > 24-Nov-2004 16:27 1. Pada tahun 1984, Metallica semakin besar dengan menerbitkan album Ride the Lightning. (q: Surrey with the Fringe on Top, Oh! Susanna, incl: Royal March from Aida, Light Cavalry Overture, Mystery Song #3) Anything, Anytime. We'll Be Together Again 09. Mahler Symphony No. (141723 albums total) 00 01 02 03 04 05 06 07 08 09 10 11 12 13 14+ Sadistic Parasite. Metallica / Ride the Lightning XWAR452100F96 $17. However, as I am moving out to the sticks with no broadband access I was looking for some good FLAC download sites to fill my hard drive before moving. Follow the instructions in this FAQ for standard FLAC playback to listen to FLAC-HD files. No Remorse [04:25] 04. Today, 09:32 musician. 9M 062) Pink Floyd - Money. Title: Plays Metallica By Four Cellos Genre: Classic Rock Artist: Apocalyptica. (disc 1: New Recor; Metallica - S and M; Metallica - St. It is available in multiple formats on that page, including FLAC. Andreas Vollenweider. 061) Metallica - Master of Puppets. Thereafter there was no significant progress in Scorpio's recurrence board "Studio Daze Digitally Remastered" (LZ 01) to the extent that a take including the first appearance appears in plain before "Moby" performance, so far the audience recording Not to mention the single item as a '72 Long Beach performance is not released at all, and the SB appeared suddenly and it made me. Recent Entries; 1999-08-28 · Roger Waters @ Kemper Arena, Kansas City · Every Point Of Light · 23 hours ago; 1999-08-28 · Roger Waters @ Kemper Arena, Kansas City · Each Small Candle · 2 days ago; 1999-08-18 · Roger Waters @ Coca-Cola Star Lake Amphitheater, Burgettstown · Starlake Amphitheater · 6 days ago; 1999-08-18 · Roger Waters @ Coca-Cola Star Lake Amphitheater, Burgettstown. Codec: Free Lossless Audio Codec (FLAC) Version: reference libFLAC 1. We'll Be Together Again 09. Although relatively strong sales at the time of its release would appear to refute this claim, Dio's third album in three years, 1985's Sacred Heart, was a terribly divisive affair, and is largely viewed as a disappointment in retrospect. metallica unforgiven flac скачать. Nenhum comentário: Postar um comentário. With Edgar Barradas, Kirk Hammett, James Hetfield, Metallica. Started by JumpInTheFire. Plugins for a variety of media players have been developed. Download high resolution audio files from Norwegian 2L in stereo 96kHz, 192kHz, DXD, DSD and 5. 1 kHz, similar to CD quality), as well as high resolution (24-Bit Hi-Res). 0 % Test CRC 9164C276 Copy CRC 9164C276 Cannot be verified as accurate (confidence 1) [53196BC3], AccurateRip returned A659A636 Copy OK. Metallica was formed by Lars Ulrich and James Hetfield in the fall of 1981. Fade To Black 05. The entire Live Metallica concert catalog is now also available for unlimited on-demand streaming on nugs. Hardwired 2. Bertice Reading. He Who Saw The Darkness 07. Eye Of The Beholder 04. October 2013, 16:54 Rod Stewart / Rarities Used drive : PLEXTOR DVDR PX-891SA Adapter: 0 ID: 4 Read mode : Secure Utilize accurate stream : Yes Defeat audio cache : Yes Make use of C2 pointers : No Read offset correction : 6 Overread into Lead-In and Lead-Out : No Fill up missing offset samples with silence : Yes. 1kHz to a flac file (lossless). Deneme amaçlı Flac indiriyorum ama bryan adams 320kb lik bir Mp3 indireyim dedim. "506483759 i liked the music he made but still it is bitchy of him to complain about not being the only one behind the music at the same time mixing stuff behind his back is a dick move. metallica flac слушать. Grossly oversimplified, FLAC is similar to MP3, but lossless, meaning that audio is compressed in FLAC without any loss in quality. Battery (5:12) 02. Pirateship 09. flac", "03 - Holier Than You. Mastered by George Marino at Sterling Sound from the original master tapes to vinyl and PCM. Tematy na forum. Скачать торрент (Heavy Metal, Thrash Metal) Metallica - Master Of Puppets (2010) [FLAC (Tracks+. Ride The Lightning (6:36) 3. JUMP IN THE FIRE. PERFORMER "Metallica" REM COMPOSER "" INDEX 01 00:00:00 FILE "04 - Moth Into Flame. I came across www. Mahler Symphony No. Rockanthology 69 was probably the first flac blog eye ever visited at a bud's place before even having broadband. It's So Easy 3:29 07. 89 MB | Formato: flac Artista: Metallica | Album: The 5. 2 Replies 19886 Views January 22, 2018, 10:44:30 AM by Blackjoni: Metallica - June 5, 1994 - New York State Fair Grandstand - Syracuse, NY, USA (A. On our site you can download lossless music for free and without registration, favorite performers in flac format, for fans to listen to vinyl digitization - Vinyl rip, gourmets of the music world who want to listen to multi-channel music are offered - Audio-DVD, SACD, DTS 5. Origins 02. Tracklist: 01. Intro to A String Quartet. Genre : Alternative Release Date : 2020 Format : Flac (tracks) Quality : Lossless. Fue fundada en 1981 en Los Ángeles por Lars Ulrich y James Hetfield, a los que se les unirían Dave Mustaine y Cliff Burton. Several formats are available for downloads (FLAC, ALAC, AIFF, WMA, WAV). 9M 062) Pink Floyd - Money. Metallica – Kill ‘Em All (Remastered) (2020) Metallica – Master of Puppets (Remastered) (2020) Metallica – Ride the Lightning (Remastered) (2020) Metallica – Olympiastadion, Berlin, Germany July 6, 2019 (2019) Metallica – Live at Woodstock (2019) Metallica – For Whom The Bell Tolls (Live) (2019) Metallica – Helping Hands…. Search and download music album covers. I would like a site that had a lot of variety and by the original artists too. CatMoves 05. 8M 063) Red Hot Chili Peppers - Scar Tissue. Parent Directory - 001) Led Zeppelin - Stairway to Heaven. Blackened 02. It was recorded in an eight-month span at One on One Recording Studios in Los Angeles. Metallica – Kill ‘Em All (Remastered) (2020) Metallica – Master of Puppets (Remastered) (2020) Metallica – Ride the Lightning (Remastered) (2020) Metallica – Olympiastadion, Berlin, Germany July 6, 2019 (2019) Metallica – Live at Woodstock (2019) Metallica – For Whom The Bell Tolls (Live) (2019) Metallica – Helping Hands…. For Whom The Bell Tolls (5:10) 4. Out Ta Get Me 4:56 03. Sad But True 03. Cute Girls Doing Cute Things. flac now defaults to -S 10s instead of -S 100x for the seek table. Gig Command line compressor : C:\Program Files (x86)\Exact Audio Copy\Flac\flac. Metallica _-_ ­ Metallica __Jap­ an_Edition___19­ 91__FLAC__image. Tracklist: 01. Metallica / Master Of Puppets (1995 USA Elektra 9 60439-2). This is a dedicated thread for the back catalog hi-res downloads available on Metallica. 1 kHz, 16 bit stereo). The reason I want a cuesheet is, that's where all the CD metadata will be stored. Kembali Metallica masuk Billboard Top 40 selama 72 minggu. Anette Maiburg, Alexandra Cravero, Emmanuel Ceysson, Karina Buschinger, Wen Xiao Zheng, Guido Schiefen, Mathias Haus. [Flac] Heavy Metal + Cue - Progetto TNTMetal Autore: MotorHeadTitolo: DiscografiaAnno: Anni 1977-2010Genere: Heavy MetalELENCO ALBUM: 1977 Motorhead 1979 Overkill 1979 Bomber 1979 On Parole 1980 Ace Of Spades 1982 Iron Fist 1983 Another Perfect Day 1986 Orgasmatron 1987 Rock'n'Roll 1991 1916 1992 March Or Die 1993 Bastards 1995 Sacrifice 1996 Overnight Sensation 1998 Snake Bite Love 2000 We. r/opendirectories: **Welcome to /r/OpenDirectories** Unprotected directories of pics, vids, music, software and otherwise interesting files. Both FLAC and Apple Lossless (ALAC) use "lossless" compression which means that the source audio file is compressed, but without sacrificing any of the audio information contained in the master recording. The Haitian Slam 05. (Note: I have uploaded both a Lossless. (Heavy Metal) [LP] [24/96] Metallica - Metallica - 1991 (US), FLAC (tracks), lossless rutracker. Spreading The Disease. Dead End 03. Kembali Metallica masuk Billboard Top 40 selama 72 minggu. Don't Cry 5. Recording #378. cue,log,scans) Bitrate: Lossless Time: 52:32 Full Size: 420Mb. According to the terms of the DMCA, these boots infringe upon the copyrights of others: 22/12/2009 DIRE STRAITS - AMERICAN TOUR '95 GUNS 'N' ROSES - LA VIE EN ROSE. Harvester Of Sorrow 07. Though one of the slower tracks on the album, its chord progression is distinctly one of the heaviest ballads featured on the album. cue) Quality: Hi-Fi, lossless audio Sample Rate: 44. (1998) Metallica - Reload (1997) Blondie - Parallel Lines (1978) ☠ Boy George - Cheapness & Beauty (1995) Ja Rule - Blood In Eye (2003) Ja Rule - Venni Vetti Vecci (1999) Jagged Edge - The Hits (2006) Kelly Rowland - Simply. Tennis – Swimmer (2020) Hi-Res. FLAC stands for Free Lossless Audio Codec, originally developed by Josh Coalson. FLAC stands for Free Lossless Audio Codec, an audio format similar to MP3, but lossless, meaning that audio is compressed in FLAC without any loss in quality. Mastered by George Marino at Sterling Sound from the original master tapes to vinyl and PCM. metallica bootlegs from 1991 hosted on extabit, rapidgator, rapidshare, lumfile, netload, uploaded and torrent with keygen, crack and serial. Spreading The Disease. Free Lossless Audio Codec: Autograph - Turn Up The Radio. Say It Isn't So 12. Always Crashing In The Same Car 03. Tennis - Swimmer (2020) Hi-Res. Les albums de Metallica ont été vendus à plus de 100 millions d'exemplaires dans le monde entier, ce qui en fait le groupe de métal le plus prospère sur le plan commercial. (q: Surrey with the Fringe on Top, Oh! Susanna, incl: Royal March from Aida, Light Cavalry Overture, Mystery Song #3) Anything, Anytime. Index of /Mp3/ Name Size Date-Time Type Enter Sandman. Tracklist: 01. Metallica - Master Of Puppets (Deluxe Box Set 10 CD, Remastered) (2017) Thrash Metal | MP3 320 kbps | 1. 50+ videos Play all Mix - [HQ-FLAC] Metallica - The Unforgiven YouTube Metallica - Fade to Black - Electric Guitar Cover by Kfir Ochaion - Duration: 6:45. 2 Replies 19886 Views January 22, 2018, 10:44:30 AM by Blackjoni: Metallica - June 5, 1994 - New York State Fair Grandstand - Syracuse, NY, USA (A. 3 is a major release with improved compression, improved cover art and multichannel support, better recovery for corrupted files, many new features and options in the command-line tools, and several bug fixes. Recorded in December 1961, this was recorded in the back room of Dick Taylors’ parents home with the band consisting of Mick Jagger on vocal, Keith Richard and Bob Beckwith on guitars, Dick Taylor on bass and Allen Etherington on percussion. 1 kHz, similar to CD quality), as well as high resolution (24-Bit Hi-Res). So in case of flac files the files will be named "01 - Enter Sandman. If you listen to Metallica mostly digitally, you need to listen to. An extracted FLAC or ALAC file sounds identical to the original source (44. Although relatively strong sales at the time of its release would appear to refute this claim, Dio's third album in three years, 1985's Sacred Heart, was a terribly divisive affair, and is largely viewed as a disappointment in retrospect. Although relatively strong sales at the time of its release would appear to refute this claim, Dio's third album in three years, 1985's Sacred Heart, was a terribly divisive affair, and is largely viewed as a disappointment in retrospect. Moth Into Flame. Artist: Burning Witches Title Of Album: Dance With The Devil [Japanese Edition] Year Of Release: 2020 Label (Catalog#): Ward Records, Inc. Dead End 03. muzyka bezstratna. Metallica is offering soundboard recordings of live shows in FLAC format. Metallica - Master of Puppest (1986) Remastered FLAC / MP3 [ Download FLAC] [ Download MP3] Password: This website is an external content index. FLAC stands for Free Lossless Audio Codec, an audio format similar to MP3, but lossless, meaning that audio is compressed in FLAC without any loss in quality. Related Blog Posts. Metallica was formed by Lars Ulrich and James Hetfield in the fall of 1981. Artist: Metallica Title Of Album: Metallica (Japan Edition) Release Date: 2010 (1991) Location: USA Label: Universal Music Japan (UICY-94666) Genre: Thrash Metal, Speed Metal Quality: FLAC (tracks+. Notes: Sister site of Downloads Now!. Blue Coast Records. metallica master of puppets flac скачать. 21 > FLAC 01 Most Likely You Go Your Way (And I'll Go Mine) 02 Lay Lady Lay.