EAC extraction logfile from 3. (1993) Remastered FLAC / MP3 Pink Floyd - The Dark Side Of The Moon (1973) Remastered FLAC / MP3 Michael Jackson - Thriller (1982) FLAC / MP3. Original Release Date: 2002. Topic Title Topic Starter Replies Views Last Action; 1981-00-00 Leathur Demos flac: the accountant: 13: 52: 26th December 2019 - 03:43 PM. info Hash. Not far removed from Syd Barrett-era Pink Floyd, the jazzy chord changes, unpredictable bursts of scat singing, glib free-association lyrics, ominous buzzing organ, and Robert Wyatt's soulful rasp convey the freewheeling. This blog's chosen lossless codec (file format) is FLAC (Free Lossless Audio Codec). 0 yes yes 8 MicroSD Flash 20 h 60g, video, Rockbox 70 € Yes, as of 2012. 00b: October 5 2013 at 22:55: Aerosmith - Greatest Hits - Flac. I find however that I get quite a lot of single file album releases with a CUE file and HP continues post-processing and deletes the leftover files. Rozpoczęty przez. wav Peak level 98. 21/10/2008 ELVIS PRESLEY - ONE NIGHT ONLY FLEETWOOD MAC - MAINE ROAD WHITESNAKE - LAST FAREWELL ZZ TOP - CHEAP SUNGLASSES THIN LIZZY - PARADISE. were charged by the Securities and Exchange Commission for failing to disclose payments they received for promoting investments in initial coin offerings. 73 Kibit/s] [00:05:02]; 03 - One Hell of a Party [feat. Made in Eu. mp3 8-Jan-2007 11:35 Pink Floyd - Dark Side of the Moon. 0 96kHz/24Bit, MLP 4. 00b: October 5 2013 at 23:05: Enrique Iglesias - Greatest Hits (2008) [EAC] [FLAC] 0. 1 home theater music song in the most popular formats DVD-Audio, DTS 5. wav file +. This is my master image, and I have written some programs that will split to multiple WAV files in a folder per CD, based on the CUE, and optionally transcode these to MP3 for use on my phone, FLAC files for my Pono player, Etc. Our lossless music recording formats are generally shared in the form of lossless SHN (Shorten) or lossless FLAC (Free Lossless Audio Codec) files which is about 6 times larger than mp3 files resulting in taking up a lot more space on your hard disk. It's a music catalog. 0 % Filename C:\z\Pink Floyd – Dark Side Of The Moon – Hi-Res. Listen to Bruce Springsteen Collection 1973 - 2012 Flac Torrent and thirty-eight more episodes by Pairon Talle Full Movie Part 1 720p Torrent, free! No signup or install needed. November 13th, 1970. Larry Fast & Alan White - On The Run [3:17] 03. Robert Fripp, Jon Hassell and Percy Jones guest. Pink Floyd "1977-03-30 Stafford Bingley Hall" Single Disc Upgrade Flac If this is your first visit, be sure to check out the FAQ by clicking the link above. VA – VTM Kids Hits Best Of 2019 (2019) [FLAC] February 18, 2020. 1 download flac. HDtracks is a high-resolution music platform for music lovers to download their favorite tracks in master studio quality. Ben Noble - Where the Light Comes In (2020) FLAC. Entrar com nome de utilizador, password e duração da sessão. 00b: October 6 2013 at 12:00: requiem for a dream - OST: 0. 98: Pink Floyd / 1968 Germin-ation FLAC 44kHz/24bit Download XSON683995F44 $17. Catalog #: PFRLY19 Style: Progressive Rock, Art-Rock Year: 2019 Format: FLAC (tracks +. Pink Floyd - Discografia (MEGA) 320kbps Los mejores grupos Punk de la Historia. Mount my NAS share and play some music. download fat joe the dark side search results hosted on nitroflare uploaded rapidgator uploadrocket torrent uploadex sendspace with crack serial keygen. Pink Floyd 1973 Dark Side Of The Moon Posted by MisterGaga in Music > Lossless. Zaawansowane wyszukiwanie. I have HP set to download lossless files and then re-encode them to ALAC (via the very useful advanced encoding feature). Ben Noble - Where the Light Comes In (2020) FLAC. Artist: Floyd Cramer Title: Only The Big Ones Year Of Release: 1966 / 2016 Label: RCA / Legacy Genre: Jazz, Pop, Easy Listening Quality: FLAC (tracks) [192kHz/24bit] Total Time: 28:37 Total Size: 1. Speak To Me - Breathe In The Air - U. jpg 921 KB; Record 042, Side A. March 19, 2014 2:00 p. 46 GB Género-Rock Tamaño de la cu. October 2011, 10:51. PINK FLOYD releasing a 20th anniversary box set of THE DIVISION BELL the band's 1994 multi-million selling album that included the Grammy® Award-winning track "Marooned". ANIMALS T-shirt Maroon. wav" WAVE TRACK 01 AUDIO FLAGS PRE TITLE "Speak To Me / Breathe In The Air" PERFORMER "Pink Floyd" INDEX 01 00:00:00 FILE "02 - On The Run. 33 MiB] [786. Andreas Schaerer & Hildegard Lernt Fliegen The Waves Are Rising, Dear! [Hi-Res] '2020. Performer: Pink Floyd Album: The Piper At The Gates Of Dawn Label: Toshiba-EMI. (Soundboard FLAC) Pink Floyd DB: http://www. The problem is to nd the k-smallest element in the list: ord(k;A) = a0 k where a0 1;a 0 2;:::;a nis the sorted version of the list. After reading, remove the material and purchase licensed version Music lossless for lovers of good sound. HDtracks is a high-resolution music platform for music lovers to download their favorite tracks in master studio quality. Coldplay - Discografia completa (MEGA) 320 El Barbero Locoo. fla) だけでなく、Oggファイル (. See the Audio BT Seeding Policy and Audio BT Seeding Guide for reference. Magnetic Magazine, the edm-culture blog featuring interviews, edm-downloads, house music and new electronic music. March 19, 2014 2:00 p. Narzędzia forum. Pink Floyd - The Later Years 1987-2019 Artist: Pink Floyd Album: The Later Years 1987-2019 Label: Pink Floyd Records. at 10:59 AM 2 comments: Tuesday, May 12, 2009. ’s fatal 1999 heart attack cut a successful 30-year recording career tragically short. 36805 registered users with 19. Zona-Musical Forum Index » Full albums rapidshare » Pink Floyd - A Tree Full Of Secrets (18 CD Bootleg Set) View previous topic :: View next topic Pink Floyd - A Tree Full Of Secrets (18 CD Bootleg Set). 1 download flac Pink Floyd - Atom Heart Mother, The High Resolution Remasters ‎ download flac. 1 kHz (Tracks) Artist: Ben Noble. rar PF_LiveAtPompeiiRm_flac. They are obviously waiting for some future release campaign to spring the rest of those. 00b: October 5 2013 at 23:06. cue 05/01 KB Hi-Res Stereo Mix. Victorius – Space Ninjas From Hell (2020) [FLAC] February 18, 2020. Quality: Mp3, CBR 320 kbps (Flac-Rip) / FLAC (tracks) Tracklist: CD 01: 01. November 13th, 1970. 151 likes · 17 were here. 2010 | Commentaires: 196 | Articles: 0 #2. flac 关键词: LastOfTheWilds Son Of The Sun The Night. Title: Bodacious! RAR Size: 242 Mb Tracklist & Download Links. 67 GB Hi-Res Stereo Mix. REM COMMENT "The Later Years 1987 - 2019, Pink Floyd Records - PFRLY01, Rip by slayko 2019" PERFORMER "Pink Floyd" TITLE "A Momentary Lapse Of Reason (Mixes In 5. a large collection. Not far removed from Syd Barrett-era Pink Floyd, the jazzy chord changes, unpredictable bursts of scat singing, glib free-association lyrics, ominous buzzing organ, and Robert Wyatt's soulful rasp convey the freewheeling. Andreas Schaerer & Hildegard Lernt Fliegen The Waves Are Rising, Dear! [Hi-Res] '2020. Roger Speaks Manifold (easter Egg). • ISO Audio BT, • Inactive Audio BT, • Pulled Audio BT. Originally published Thu Jul 3 20:35:53 PDT 2003. Pink Floyd - Animals (1977) [Discovery BOX Japan 2011] FLAC; Bjork - Discography (1977 - 2011) (FLAC) download links are provided by Extabit Rapidshare Uploaded Rapidgator Netload Bitshare Freakshare Letitbit Dizzcloud and more. Pero es el The Wall el unico que no he podido hacer funcionar. 71 TB of traffic. Artist: The Winery Dogs Title Of Album: Dog Years - Live In Santiago & Beyond 2013-2016 Year Of Release: 2017 Label: Loud & Proud Records Country: USA Genre: Hard rock,Blues rock Quality: Blu-Ray Video: MPEG-4 AVC Video / 17544 kbps / 1080p / 23,976 fps / 16:9 / High Profile 4. flac : 1981-02-18: Pink Floyd: Between A Wall And A Hard Place [A/1] PRRP 031 : Westfalenhalle: Dortmund: audience : shn : 1981-02-18: Pink Floyd: The Definitive Wall. BBC SESSIONS 1976-1979 09/04/1976 Paris Theatre, London, England. Uploaded 07-21 2014, Size 3. rar PF_LiveAtPompeiiRm_flac. Catalog #: PFRLY19 Style: Progressive Rock, Art-Rock Year: 2019 Format: FLAC (tracks +. All materials on the site are provided for informational purposes only. Peak level 97. Download Pink Floyd - The Discovery Studio Album Box Set [FLAC] TNT Village torrent for free, Downloads via Magnet Link or FREE Movies online to Watch in LimeTorrents. 10 videos Play all Pink Floyd - Dark Side Of The Moon Flac Music Metallica: Nothing Else Matters (Official Music Video) - Duration: 6:26. Pink Floyd were formed in 1965, and originally consisted of university students Roger Waters, Nick Mason, Richard Wright, and Syd Barrett. flac" FLAC REM FILE-DECODED-SIZE 06:13:00 TRACK 06 AUDIO TITLE "Yet Another Movie" PERFORMER "Pink Floyd". Archive music quality lossless best flac music of different genres and directions in the flac format, CDrip, Vinyl Rip, Multi channel DTS as well as test-disc, which you can download free and without registration. 7 Derek and The Dominos - Layla 2:481. Ben Noble - Where the Light Comes In (2020) FLAC. 0 % Filename C:\z\Pink Floyd – Dark Side Of The Moon – Hi-Res Remasters (2018) FLAC\CD3 – High Resolution Remaster + Bonus\03 Time. Careful With That-Axe Eugene 04. This thread is archived. Download Pink Floyd - The Best of Pink Floyd torrent for free, Downloads via Magnet Link or FREE Movies online to Watch in LimeTorrents. Pink Floyd - The Later Years 1987-2019 Artist: Pink Floyd Album: The Later Years 1987-2019 Label: Pink Floyd Records. com Lossless Music Download - World`s biggest FLAC dowload archive is 54. FLAC / Taper Charles Dewey Cole: jorge: 8: 86: 14th January 2020 - 03:08 AM Last Post by: DFVH5150: 2019-05-23 Indianapolis, In FLAC: jorge: 9: 45: 21st January 2020 - 08:28 AM Last Post by: Cabowabo1: 2019-05-28 Boston, Ma FLAC: jorge: 8: 28: 31st August 2019 - 07:36 AM Last Post by: 5150: 2019-05-30 Mashantucket, Ct FLAC: jorge: 8: 31: 14th. The Listening Room, Llanarthney, United Kingdom. REM GENRE Rock REM DATE 1973 PERFORMER "Pink Floyd" TITLE "Dark Side Of The Moon [Black Triangle 1A1 - CBS SONY in Plastic Hub]" FILE "01 - Speak To Me Breathe In The Air. Wish You Were Here is the ninth studio album by the English rock band Pink Floyd, released on 12 September 1975 through Harvest Records and Columbia Records, their first release for the latter. Pink Floyd - A Collection of Great Dance Songs (1981/2017) [24bit FLAC] Por favor entre ou registe-se. 0 96kHz/24Bit) | Bitrate: lossless | Tracks: 6 | Size: ~3. Audiophile Lossless Audio FLAC Sharing dan Download Ane mau sharing Link Download lagu-lagu dengan kualitas Lossless Audio FLAC 16Bit / 44. 72 MB: 13: 13 Days ago: 12: 0: London Philharmonic Orchestra. On The Run - Live…. 2010 | Commentaires: 196 | Articles: 0 #2. Pink Floyd - The Dark Side Of The Moon полная реставрация в соответствии с концептом AudioPhil editions Жанр: psychedelic rock Год выпуска: 1973 Лейбл: Harvest Records Страна-производитель: UK Аудио кодек: FLAC Тип рипа: image+. The index will aid those that prefer an A to Z alphabetical listing and help you instantly find a particular artist that is of interest to you. 82 dB-----Each disc ReplayGained as seperate albums CD 1 -5. flac : 1981-02-18: Pink Floyd: Between A Wall And A Hard Place [A/1] PRRP 031 : Westfalenhalle: Dortmund: audience : shn : 1981-02-18: Pink Floyd: The Definitive Wall. Quality: Mp3, CBR 320 kbps (Flac-Rip) / FLAC (tracks) Tracklist: CD 01: 01. FLAC 16 bit / Pop / Indie Today, 13:53 14 Lira All albums Ben Noble. info/music/ 13 comments. 08 SanDisk Sansa Clip Zip FLAC yes yes USB 2. Index of /music/Led Zeppelin/ flac more rock up a level. 1 96kHz/24Bit, MLP 2. 89 Kibit/s] [00:02:50] Burl Ives - Down To The Sea In Ships - 15. 00: Pink Floyd / The Piper At The Gates Of Dawn CD CEMI 3525 $19. loreti_golden. This is a complete alphabetical list, as of December 2016. wav" WAVE TRACK 05 AUDIO TITLE "Have A Cigar" PERFORMER "Pink Floyd" REM COMPOSER "" INDEX 01 00:00:00. (1993) Remastered FLAC / MP3 Pink Floyd - The Dark Side Of The Moon (1973) Remastered FLAC / MP3 Michael Jackson - Thriller (1982) FLAC / MP3. 1 Audio: English / DTS-HD Master Audio / 5. Pink Floyd - Atom Heart Mother, The High Resolution Remasters ‎ download flac. Saturday, February 01, 2020. 0 % Extraction speed 6. Animals on LP and CD. Forum: FLAC (lossles) Format. I actually rip each of my CD to a single. 98: Pink Floyd / 1968 Germin-ation FLAC 44kHz/24bit Download XSON683995F44 $17. Artist: The Who Date: 1979-09-13 Location: New York, NY Venue: Madison Square Garden Source: Audience Taping Gear: Teac M-100>Sony 153SD (mono, Dobly B on). Careful With That-Axe Eugene 04. April 15th 1986 Time: Disc 1: 49:02. Pink Floyd - The Final Cut (1983~2016) [24-192] [FLAC HI-Res]. Parent Directory-15-14-13-12-11-10-09-08-07-06-05-04-03-02-01: page 01 of 05 +01 +02 +03 +04 +05 +06 +07 +08 +09 +10 +11 +12 +13 +14 +15 <- Back | Next page ->. e Pink Floyd DSOTM) « Reply #1 on: July 10, 2012, 07:52:22 pm » I recommend outputting a consistent number of channels using DSP Studio > Output Format > Channels (preferably the number of actual speakers you have). Скачать торрент Pink Floyd - The Later Years: 1987-2019 [5CD Box Set] (2019) FLAC,. Uploaded 07-21 2014, Size 3. Bruce Springsteen - Live Collection [Japan CBS Vinyl 24-9 Audio FLAC 2 05 MB Pink Floyd only to index the Torrents meta information and provide search. If you prefer to use a different bittorrent client, you can use the magnet link. BBC SESSIONS 1976-1979 09/04/1976 Paris Theatre, London, England. 2020 intmusic. Download intitle index of mp3 pink floyd using General-Search. I have 3 cds with a cue sheet and I cant't burn it these are: name: Oh, by the way Pink Floyd - Meddle [Eac-Flac-Cue][By Srdr] cue sheet: REM GENRE "Progressive Rock" REM DATE 1971 REM DISCID 360AFC06 REM COMMENT "ExactAudioCopy v0. Here at Argentum we love music a lot. HDtracks is a high-resolution music platform for music lovers to download their favorite tracks in master studio quality. Black Salm 06. the Los Angeles and San Francisco scenes in the U. Pink Floyd - The Dark Side Of The Moon (1973) [. Zaawansowane wyszukiwanie. Breathe (In The Air). La discografia Ufficiale in studio è completa fino al 15-08-2018. Casual Piece Of Meat 9. mp3 320kbps easy download. 5 GB Pink Floyd The Dark Side Of The Moon 1973 [24 bit FLAC] VINYL 890 MB Pink Floyd - Discography [EAC - FLAC] (oan) 7. Silahkan bisa dicek dengan menggunakan program ini SPEK Contoh : Mohon ma. rar PF_LiveAtPompeiiRm_flac. Dark Side of the Moon T-Shirt. The following recommendations were developed by a community of Ogg/Vorbis users for their own use. 1 kHz (Tracks). php?concert_id=30&bootleg_id=6808 PINK FLOYD - Amsterdam 1969 Midas Touch MD 93911 Matrix Disc : MD 93911. Excellent Soundboard Recording:: Silver CD:: MP3 CBR 320 kbps & FLAC. Il tutto è stato rieditato, introducendo nomemclature e TAG secondo i miei standard di uniformità. "Call to Statesmanship" and "Presidential Processional" (FLAC). a large collection. Download 5. EAC extraction logfile from 3. You may have to register before you can post: click the register link above to proceed. Julio Jaramillo 938,842 views. 2019 Limited Edition T-Shirts - LAST FEW LEFT! ANIMALS T-Shirt Navy Blue. 2010 | Commentaires: 196 | Articles: 0 #2. ), the summer of 1967 was the point at which this psychotropic-inspired sound crossed into the mainstream with the release of The Beatles' Sgt. wav Peak level 98. The purpose of the set of tags in this recommendation is to provide information about the track that contains the tags. It's a music catalog. 8 Wings - Band on the Run. October 2011, 10:51. 4408 rapidshare intitle index of mp3 links available for free instant download. Buy 'The Early Years, 1967-1972, Cre/ation by Pink Floyd' MP3 download online from 7digital United States - Over 30 million high quality tracks in our store. The Listening Room, Llanarthney, United Kingdom. 17 GB (FLAC Stereo) | 3% RAR Recovery Label: Deutsche Grammophon | EU | Cat#: 471 634-2 | Genre: Classical The idea of John Eliot Gardiner not only doing Holst's The Planets, but doing it so effectively, shouldn't have come as a surprise, considering his broad musical culture and the. Catalog #: TOCP-53803 Style: Psychedelic Rock Year: 2006 Format: FLAC (image +. 3 - Pink Floyd CD Quality 16-bit/44. Pink Floyd The Dark Side Of The Moon BoxSet 3CD FLAC 1. Ty Pendlebury. March 19, 2014 2:00 p. Pink Floyd Denmark Behind Us Vejlby Risskovhallen, Århus, Denmark. Year: 2014 Country: UK Record Label: Original Master Series Music Genre: psychedelic progressive rock Rip Format: FLAC (Tracks) Booklet Scans: Yes Size Archive: ~ 403 MB Host: Yadi. flac" FLAC REM FILE-DECODED-SIZE 06:13:00 TRACK 06 AUDIO TITLE "Yet Another Movie" PERFORMER "Pink Floyd". Ships from and sold by Amazon. Pink Floyd - Atom Heart Mother, The High Resolution Remasters ‎ download flac. 1kHz 24bit). Name (Order by: Uploaded, Size, ULed by, SE, LE). Music played on one of the finest, most. The Great. Music, movies, games, software and more! Legit Torrents is the biggest and best free and legal torrent tracker. Witaj Gościu! VA - Smooth Jazz All Stars - Tribute To Pink Floyd (2011) FLAC. Have A Cigar. wav" WAVE INDEX 01 00:00:00 TRACK 04 AUDIO TITLE "Corporal Clegg" PERFORMER "Pink Floyd" INDEX. flac" FLAC REM FILE-DECODED-SIZE 06:13:00 TRACK 06 AUDIO TITLE "Yet Another Movie" PERFORMER "Pink Floyd". ogg) やMatroskaファイル (. Ben Noble - Where the Light Comes In (2020) FLAC. I have HP set to download lossless files and then re-encode them to ALAC (via the very useful advanced encoding feature). cue Pink Floyd - The Wall Disc 2. Ty Pendlebury. Il tutto è stato rieditato, introducendo nomemclature e TAG secondo i miei standard di uniformità. Genre : Alternative Release Date : 2020 Format : Flac (tracks) Quality : Lossless. 1 download flac. Pink Floyd - The Later Years 1987-2019 Artist: Pink Floyd Album: The Later Years 1987-2019 Label: Pink Floyd Records. Casual Piece Of Meat 9. 95b1 PERFORMER "Alice Cooper" TITLE "Welcome To My Nightmare DTS" FILE "01. 0 yes yes 8 MicroSD Flash 20 h 60g, video, Rockbox 70 € Yes, as of 2012. 3 - Pink Floyd CD Quality 16-bit/44. When you extract a FLAC file you get the lossless. Paisley Underground Series, #1: Various Artists- Nuggets: Original Artyfacts from the First Psychedelic Era 1965-1968 (1998) Box Set (4 Discs) MP3 & FLAC "I can't get your love; I can't get a fraction. wav" WAVE TRACK 04 AUDIO TITLE "Another Brick In The Wall Part 2" PERFORMER "Pink Floyd" REM COMPOSER "" INDEX 01 00:00:00 FILE "05. (The Godfatherecords :: G. This act is so good they were even engaged by David Gilmour to perform at his 50th birthday celebration!. Have A Cigar. Title: Bodacious! RAR Size: 242 Mb Tracklist & Download Links. I have not provided a sound quality rating as virtually all are of sufficient high quality to rate around 5 out of 5, some are worthy of 5+ like the best official releases. 01 KB Alan Parsons Quadro Mix (1973). 1kHz 24bit). were charged by the Securities and Exchange Commission for failing to disclose payments they received for promoting investments in initial coin offerings. Used drive : SONY CDRW/DVD CRX835E Adapter: 4 ID: 0. It's a music catalog. Saturday, February 01, 2020. Download surround and lossless music | DVD-Audio, DTS-CD, SACD, Audio-DVD, DTS 5. cue) Quality: lossless Covers: Complete set (600 dpi) Amount of tracks: 12 Size RAR: ~ 578. Andreas Schaerer & Hildegard Lernt Fliegen The Waves Are Rising, Dear! [Hi-Res] '2020. Be sure that each page has a unique title. for instance, if you listen to track 1, then leave the audio playing, after track 1 ends track 2 might start with a 2 second ‘pregap’ of silence at index 00 before the actual track starts at index 01. 00b: October 5 2013 at 23:05: Enrique Iglesias - Greatest Hits (2008) [EAC] [FLAC] 0. 976 on rasberry pi 2. Download Jazz lossless FLAC APE WAV music. 2 David Bowie - Heroes 6:081. Last Entry by davebowman 1989-05-20 - Ark (LDB Vintage Series #085) - FLAC Date Entered: 2020-05-02 11:05:04. Pink Floyd - Atom Heart Mother, The High Resolution Remasters ‎ download flac. 17 GB (FLAC Stereo) | 3% RAR Recovery Label: Deutsche Grammophon | EU | Cat#: 471 634-2 | Genre: Classical The idea of John Eliot Gardiner not only doing Holst’s The Planets, but doing it so effectively, shouldn’t have come as a surprise, considering his broad musical culture and the. Quality: FLAC 16 bit / 44. Mp3 is a compressed version of the original recorded CD. Animals on LP and CD. mp3 320kbps easy download. Uploaded 07-21 2014, Size 3. Total Size: 4. Download Lewis Floyd Henry - 2015 - Over Stylez (FLAC) torrent for free, Downloads via Magnet Link or FREE Movies online to Watch in LimeTorrents. Il tutto è stato rieditato, introducendo nomemclature e TAG secondo i miei standard di uniformità. Made in Eu. A Saucerful Of Secrets CD2: 1. FLAC 16 bit / Pop / Indie Today, 13:53 14 Lira All albums Ben Noble. Entrar com nome de utilizador, password e duração da sessão. wav" WAVE TRACK 02 AUDIO FLAGS PRE. Metallica Recommended for you. Reason: ajout flac. I find however that I get quite a lot of single file album releases with a CUE file and HP continues post-processing and deletes the leftover files. Download intitle index of mp3 pink floyd using General-Search. The index will aid those that prefer an A to Z alphabetical listing and help you instantly find a particular artist that is of interest to you. [Hi-Res] The Beatles - Stereo USB Box Set (flac 44. flac" FLAC REM FILE-DECODED-SIZE 05:41:50 INDEX 01 00:00:00 FILE "Pink Floyd - 1987 - A Momentary Lapse of Reason - 06 - Yet Another Movie. Oznacz jako przeczytany Zobacz główne forum; Przeszukaj to forum. wav Peak level 98. Another Brick In The Wall Part 2. 77 GB (FLAC Mch) + 1. I find however that I get quite a lot of single file album releases with a CUE file and HP continues post-processin. On The Run. ’s fatal 1999 heart attack cut a successful 30-year recording career tragically short. Ryko ~ 2005/1991 Tracklist/Info The Index Masters in FLAC: Grab, Try, and Buy! MP3 (320kbps) Paisley Underground Series, #1: Various Artists- Nuggets: Original Artyfacts from the First Psychedelic Era 1965-1968 (1998) Box Set (4 Discs) MP3 & FLAC. sk Pepperland Auditorium, San Rafael, CA, October 16, 1970. 00b: October 6 2013 at 12:00: requiem for a dream - OST: 0. You may have to register before you can post: click the register link above to proceed. Not far removed from Syd Barrett-era Pink Floyd, the jazzy chord changes, unpredictable bursts of scat singing, glib free-association lyrics, ominous buzzing organ, and Robert Wyatt's soulful rasp convey the freewheeling. 98: Pink Floyd / The Wall/ 2 discs Preowned Gold CD UCMOB 2537 $315. Exact Audio Copy V0. Original Release Date: 2002. flac" WAVE TRACK 01 AUDIO TITLE "Signs of Life" INDEX 01 00:00:00 TRACK 02 AUDIO TITLE "Learning to Fly" INDEX 01 04:22:73. Be sure that each page has a unique title. Solitary Mourner 07. Direct download via HTTP available as well. Download Pink Floyd - The Best of Pink Floyd torrent for free, Downloads via Magnet Link or FREE Movies online to Watch in LimeTorrents. Set The Controls 8. Paisley Underground Series, #1: Various Artists- Nuggets: Original Artyfacts from the First Psychedelic Era 1965-1968 (1998) Box Set (4 Discs) MP3 & FLAC "I can't get your love; I can't get a fraction. to Pink Floyd The Dark Side Of The Moon BoxSet 3CD FLAC 2018 flac 10 hours thepiratebay. Pink Floyd - The Division Bell (2014) [24bit FLAC] 5. If you prefer to use a different bittorrent client, you can use the magnet link. Join us today for the ultimate listening experience!. cue) lossless Главная » Зарубежный Rock » Progressive & Art-Rock (lossless). Total Size: 4. Pink Floyd / The Division Bell. Pink Floyd were formed in 1965, and originally consisted of university students Roger Waters, Nick Mason, Richard Wright, and Syd Barrett. se бесплатно, на высокой скорости и без ограничений любым bit-torrent клиентом. CD1: Green Is The Colour (fades in) (3:05) Careful With That Axe, Eugene (12:24). Pink Floyd - The Dark Side Of The Moon (1973) [. Consider this online catalog our tribute to art, our tribute to real music. Pink Floyd Porcupine Tree Riverside Rush Shriekback Dave Sinclair Stewart / Gaskin TC&I The Michael Giles Mad Band Theo Travis Toyah UXB Steven Wilson XTC Yes More. Scarecrow 10. > - 28-Dec-2015 23:53. The Who Riverfront Coliseum Cincinnati, OH December 3, 1979 Taped and transferred by JEMS Disc one (61:57): (1) Substitute (3:13) (2) Can't Explain (3:38). Full HD Movies Download. While many people download FLAC files in order to enjoy lossless audio, many others prefer downloading FLAC files because it gives them the power to choose what lossy file format to convert to. Catalog #: PFRLY19 Style: Progressive Rock, Art-Rock Year: 2019 Format: FLAC (tracks +. AreKay: New Riders Of The Purple Sage - 1972 - Field Trip (Live) (2020) [FLAC16] - and [320] - August 27, 1972 found the New Riders once again on the bill with the Grateful Dead for what turned out to be one of the more legendary events in this subculture's history. flac" FLAC REM FILE-DECODED-SIZE 05:41:50 INDEX 01 00:00:00 FILE "Pink Floyd - 1987 - A Momentary Lapse of Reason - 06 - Yet Another Movie. hits_1960_1962. Implore The Negative 7. The Great. I will add a +1 here too. zip : 545,82 MB… Container: flac (tracks) Quality: Hi-Fi, lossless audio Sample Rate: 48000. Zaawansowane wyszukiwanie. Pink Floyd | Discografía completa | CD & Vinyl | Flac + MP3 320 kbps [076] LP , Progressive Rock , Psychedelic Rock 42 Pink Floyd fue una banda de rock británica, considerada un icono cultural del siglo xx y una de las bandas más influyentes en la historia de la música, que obtuvo gran popularidad gracias a su música psicodélica que. Here are a couple quick values that I got: Phish: Live in Brooklyn-----All 3 CDs ReplayGained as 1 album -5. FLAC (lossles) Format, Strona 14 - muzyka bezstratna. wav Peak level 98. Download Pink Floyd - The Discovery Studio Album Box Set [FLAC] TNT Village torrent for free, Downloads via Magnet Link or FREE Movies online to Watch in LimeTorrents. 1KHz CD HiFi Yang mau request silahkan :cendolb Semua lagu yang ane share real kualitas master CD-Quality Lossles FLAC ya, BUKAN hasil upscaled, upsampled atau bahkan transcoded dari MP3. Audio Torrents Only FLAC, SHN, and APE files are to be seeded in this forum. Tuning Up 7. 2010 | Commentaires: 196 | Articles: 0 #2. 0 % Extraction speed 8. April 15th 1986 Time: Disc 1: 49:02. The Who Riverfront Coliseum Cincinnati, OH December 3, 1979 Taped and transferred by JEMS Disc one (61:57): (1) Substitute (3:13) (2) Can't Explain (3:38). [Flac] Progressive - Test&Copy + Cue Soft Machine Complete Studio Discography 1968-2018 PLUS MANY LIVE. Pink Floyd - Meddle Artist: Pink Floyd | Album: Meddle | Style: Progressive Rock, Psychedelic Rock | Year: 2016 [1971 original] | Quality: DVD-Audio (MLP 5. 01 KB Alan Parsons Quadro Mix (1973). 4408 rapidshare intitle index of mp3 links available for free instant download. Gertrude Lawrence - The Star (1968/2020) FLAC (tracks) 24-bit/96 kHz | Time - 43:03 minutes | 657 MB | Genre: Pop, Vocal Jazz, Easy Listening. 1, DVD, FLAC, APE| Archive of surround and lossless music for free. I try volumio 0. Black Salm 06. Smoke Through The Skull 6. Implore The Negative 7. Pink Floyd Porcupine Tree flac 5. Mom, I Love You The Wrong Way 11. Quality: 320Kbps / Lossless. 67 GB Hi-Res Stereo Mix. Narzędzia forum. mp3 320kbps easy download. UK QUAD LP01. REM GENRE Rock REM DATE 1973 PERFORMER "Pink Floyd" TITLE "Dark Side Of The Moon [Black Triangle 1A1 - CBS SONY in Plastic Hub]" FILE "01 - Speak To Me Breathe In The Air. The higher bitrate files are loud pieces (often with modern compression goodness). Full HD Movies Download. 2, Area 51, Hilden, Germany - 02 & 03. (The Godfatherecords :: G. While there had already been a burgeoning underground psychedelic music scene underway in the U. ANIMALS T-shirt Maroon. The process of publishing this music catalog is fully automated. The Audiophile Music Player. EAC extraction logfile from 3. The Brit Floyd Show has truly become a phenomenon, widely regarded as the world's greatest live tribute to Pink Floyd. Merci beaucoup pour la version FLAC, je l'ai dèja en CD, mais là le son est meilleur en FLAC remaster Groupe: Membre | Enregister: 11. For example, let's say I'm an iTunes user. 125) Recorded Live at Paris Theatre, London, UK - July 16, 1970 + Piper Club, Rome, Italy "First European International Pop Festival" - May 06, 1968. Pink Floyd The Dark Side Of The Moon BoxSet 3CD FLAC 1. Live at Pompeii DOWNLOAD £3. Parent Directory-15-14-13-12-11-10-09-08-07-06-05-04-03-02-01: page 01 of 05 +01 +02 +03 +04 +05 +06 +07 +08 +09 +10 +11 +12 +13 +14 +15 <- Back | Next page ->. The index will aid those that prefer an A to Z alphabetical listing and help you instantly find a particular artist that is of interest to you. If you're looking to buy lossless music in FLAC format, from indie to classical to jazz, here are our favorite sites. ZZ Top - The Complete Studio Albums 1970-1990 [HD Tracks] (2013) SinВrееd - Whеn Wоrlds Соllidе [Jараnеsе Еditiоn] (2010 Маstеrрlаn - Тimе То Ве Кing [Jараnеsе Еditiоn] (2010 Оzzу Оsbоurnе - Оrdinаrу Маn [Jараnеsе Еditiоn] (2020 Sаvаtаgе - Still Тhе Оrсhеstrа Рlауs: Grеаtеst Нits [vоl. FLAC yes yes USB 2. Scarecrow 10. Pink Floyd - Interstellar Zappadrive (1969) FLAC FLAC (tracks) | Progressive Rock, Psychedelic Rock | 01:43:07 | 2CD | Mb CD1: 1. Here at Argentum we love music a lot. 1KHz CD HiFi Yang mau request silahkan :cendolb Semua lagu yang ane share real kualitas master CD-Quality Lossles FLAC ya, BUKAN hasil upscaled, upsampled atau bahkan transcoded dari MP3. Pink Floyd 1970-09-27 New York, NY FLAC/AUD (24Bit/48Khz) (marbal Source) FILLMORE EAST 27. 00b: October 6 2013 at 12:01: robertino. The Starving Beast 5. 73 Kibit/s] [00:05:02]; 03 - One Hell of a Party [feat. Search for and download any torrent from the pirate bay using search query the division. 1 home theater music song in the most popular formats DVD-Audio, DTS 5. (Rock) Pink Floyd - Echoes The Best of Pink Floyd (2CD) (2002) [FLAC (Tracks+. Full HD Movies Download. 2, Area 51, Hilden, Germany - 02 & 03. (Rock) Pink Floyd - Echoes The Best of Pink Floyd (2CD) (2002) [FLAC (Tracks+. CD1: Green Is The Colour (fades in) (3:05) Careful With That Axe, Eugene (12:24). Pink Floyd - Wish You Were Here (Remastered) + [FLAC] Pink Floyd - The Wall (Remastered) + [FLAC] Pink Floyd - The Division Bell 20th Anniversary Double Vinyl Edition (2014) Pink Floyd - Greatest Hits; Pink Floyd – From Abbey Road to Brittania Row; Transformers 3 - La Face Cachée de la Lune FRENCH DVDR ; Colour From The Dark VOSTFR DVDRiP. Uploaded 07-21 2014, Size 3. 31 GB: 0: 2: Marillion - Holidays In Zelandee BD2 A-Z NeoProg, Blu-ray Pink Floyd Discography. Original Release Date: 2002. Elvis Presley - Classic Love Balads 1986 [FLAC]-JDR: 0. Benighted Showcasing the fastest and most violent songs in brutal death metal, Benighted are one of the genre's leading entities. cue Pink Floyd - The Wall Disc 2. 0 % Filename C:\z\Pink Floyd – Dark Side Of The Moon – Hi-Res. Pink Floyd - Echoes - The Best Of Pink Floyd - 2001: done comment 16: Music: 11 years ago: 897 MB: 0: 0: Pink Floyd - The Best Of Pink Floyd - A Foot In The Door [flac] Music: 10 months ago: 465 MB: 1: 1: Pink Floyd - A Foot in the Door: The Best of Pink Floyd (2011) Freedom Crew: Music: 10 months ago: 476 MB: 0: 0: Pink Floyd - Delicate Sound. Darmowa rejestracja. KLa Project - KLa Returns download flac Dave Matthews & Tim Reynolds - Blenheim Vineyards Painted Series Vol. 00b: October 5 2013 at 22:55: Ace. Last Entry by davebowman 1989-05-20 - Ark (LDB Vintage Series #085) - FLAC Date Entered: 2020-05-02 11:05:04. mp3 8-Jan-2007 11:35 Pink Floyd - Dark Side of the Moon. flac 1 min 0 s; 5. Pink Floyd - Meddle Artist: Pink Floyd | Album: Meddle | Style: Progressive Rock, Psychedelic Rock | Year: 2016 [1971 original] | Quality: DVD-Audio (MLP 5. Hola, mucha gracias por compartir este material. 2, Area 51, Hilden, Germany - 02 & 03. Rebecca Pan - 我又想起你 Eddie Fisher - Sayonara / That's The Way It Goes Frank Sinatra - Look To Your Heart Andrews Sisters - Russ Morgan And His Orchestra - Now! Now! Now! Is The Time / Oh, You Sweet One (The Schnitzelbank Song) Annikki Tähti - Laulaa Venäläisiä Kansanlauluja Various - The Very Best Of Now Dance Buddy Rich Orchestra - The. Coldplay - Discografia completa (MEGA) 320 El Barbero Locoo. Toledo 1971 Sigma 234. Pink Floyd - Wish You Were Here (Remastered) + [FLAC] Pink Floyd - The Wall (Remastered) + [FLAC] Pink Floyd - The Division Bell 20th Anniversary Double Vinyl Edition (2014) Pink Floyd - Greatest Hits; Pink Floyd – From Abbey Road to Brittania Row; Transformers 3 - La Face Cachée de la Lune FRENCH DVDR ; Colour From The Dark VOSTFR DVDRiP. Wax Tailor – By Any Beats Necessary (2016) [FLAC] February 18, 2020. 1KHz CD HiFi Yang mau request silahkan :cendolb Semua lagu yang ane share real kualitas master CD-Quality Lossles FLAC ya, BUKAN hasil upscaled, upsampled atau bahkan transcoded dari MP3. 1973 The Dark Side Of The Moon ORIG. Consider this online catalog our tribute to art, our tribute to real music. Used drive : SONY CDRW/DVD CRX835E Adapter: 4 ID: 0. The purpose of the set of tags in this recommendation is to provide information about the track that contains the tags. hits_1960_1962. Download 5. While many people download FLAC files in order to enjoy lossless audio, many others prefer downloading FLAC files because it gives them the power to choose what lossy file format to convert to. Recent Entries; 1999-08-28 · Roger Waters @ Kemper Arena, Kansas City · Rehearsals · 2 days ago; 1999-08-28 · Roger Waters @ Kemper Arena, Kansas City · Every Point Of Light · 6 days ago; 1999-08-28 · Roger Waters @ Kemper Arena, Kansas City · Each Small Candle · 7 days ago; 1999-08-18 · Roger Waters @ Coca-Cola Star Lake Amphitheater, Burgettstown · Starlake Amphitheater · 11 days ago. 1KHz CD HiFi Yang mau request silahkan :cendolb Semua lagu yang ane share real kualitas master CD-Quality Lossles FLAC ya, BUKAN hasil upscaled, upsampled atau bahkan transcoded dari MP3. The Great. Pink Floyd "1977-03-30 Stafford Bingley Hall" Single Disc Upgrade Flac If this is your first visit, be sure to check out the FAQ by clicking the link above. Excellent Soundboard Recording:: Silver CD:: MP3 CBR 320 kbps & FLAC. Narzędzia forum. 95b1 PERFORMER "Alice Cooper" TITLE "Welcome To My Nightmare DTS" FILE "01. The Listening Room, Llanarthney, United Kingdom. Title: Bodacious! RAR Size: 242 Mb Tracklist & Download Links. 00b: October 6 2013 at 12:00: Rihanna - Discography (2005-2010) {Lossless} 0. The index will aid those that prefer an A to Z alphabetical listing and help you instantly find a particular artist that is of interest to you. Paisley Underground Series, #1: Various Artists- Nuggets: Original Artyfacts from the First Psychedelic Era 1965-1968 (1998) Box Set (4 Discs) MP3 & FLAC "I can't get your love; I can't get a fraction. Pink Floyd were an English rock band formed in London. Here at Argentum we love music a lot. In one case that I can point out, however, I have several FLAC files whose names start with the name of the band, namely "Pink Floyd", followed by the album name, like "Pink Floyd - Dark Sie of the Moon". FREE Shipping on orders over $25. 7 Derek and The Dominos - Layla 2:481. Media in category "FLAC files of music" The following 28 files are in this category, out of 28 total. 36805 registered users with 19. VA - Smooth Jazz All Stars - Tribute To Pink Floyd (2011) FLAC. ), the summer of 1967 was the point at which this psychotropic-inspired sound crossed into the mainstream with the release of The Beatles' Sgt. After reading, remove the material and purchase licensed version Music lossless for lovers of good sound. 0 (24/96 capture to. Obliquity and Irreversibility 02. wav" WAVE TRACK 01 AUDIO FLAGS PRE TITLE "Speak To Me / Breathe In The Air" PERFORMER "Pink Floyd" INDEX 01 00:00:00 FILE "02 - On The Run. Pink Floyd - Echoes - The Best Of Pink Floyd - 2001: done comment 16: Music: 11 years ago: 897 MB: 0: 0: Pink Floyd - The Best Of Pink Floyd - A Foot In The Door [flac] Music: 10 months ago: 465 MB: 1: 1: Pink Floyd - A Foot in the Door: The Best of Pink Floyd (2011) Freedom Crew: Music: 10 months ago: 476 MB: 0: 0: Pink Floyd - Delicate Sound. to Pink Floyd The Dark Side Of The Moon BoxSet 3CD FLAC-GHETTO music 15 hours. Parent Directory-15-14-13-12-11-10-09-08-07-06-05-04-03-02-01: page 01 of 05 +01 +02 +03 +04 +05 +06 +07 +08 +09 +10 +11 +12 +13 +14 +15 <- Back | Next page ->. When Austin stopped making that engine a 6-cylinder Austin truck engine was fitted in 1957 and the car rebadged to 100-6. Format: MP3 / FLAC. CUE), lossless] underverse. Read More Feb 29, 2020 Comments: 0. (The Godfatherecords :: G. (Rock) Pink Floyd - Echoes The Best of Pink Floyd (2CD) (2002) [FLAC (Tracks+. 9 MB: 1975 Wish You Were Here (Australia, CBS, SBP 234651) Vinyl 24Bit 192Khz/02. Pink Floyd fue una banda de rock británica, considerada un icono cultural del siglo xx y una de las bandas más influyentes en la historia de la música, que obtuvo gran popularidad gracias a su música psicodélica que evolucionó hacia el rock progresivo con el paso del tiempo. Saturday, February 01, 2020. Rozpoczęty przez. ANIMALS T-shirt Maroon. Thanks, Edge, for the soundboard early Pink Floyd! Thanks, johnsky, for the longer version notification! I will check it out!. Top 6 sites for buying FLAC music. Ryko ~ 2005/1991 Tracklist/Info The Index Masters in FLAC: Grab, Try, and Buy! MP3 (320kbps) Paisley Underground Series, #1: Various Artists- Nuggets: Original Artyfacts from the First Psychedelic Era 1965-1968 (1998) Box Set (4 Discs) MP3 & FLAC. INDEX 00 05:05:45 FILE "Pink Floyd - 1987 - A Momentary Lapse of Reason - 05 - On the Turning Away. Formed in 1965, Pink Floyd initially earned recognition for their psychedelic or space rock music, and, as they evolved, for their progressive rock music. 5 GB Pink Floyd The Dark Side Of The Moon 1973 [24 bit FLAC] VINYL 890 MB Pink Floyd - Discography [EAC - FLAC] (oan) 7. Our lossless music recording formats are generally shared in the form of lossless SHN (Shorten) or lossless FLAC (Free Lossless Audio Codec) files which is about 6 times larger than mp3 files resulting in taking up a lot more space on your hard disk. flac" WAVE TRACK 01 AUDIO TITLE "Speak To Me" PREGAP 00:02:00 INDEX 01 00:00:00 TRACK 02 AUDIO TITLE "Breathe" INDEX 01 01:07:00 TRACK 03 AUDIO TITLE "On The Run" INDEX 01 03:56:00 TRACK 04 AUDIO TITLE "Time" INDEX 01 07:41:00 TRACK 05 AUDIO TITLE "The Great Gig In The Sky" INDEX 01 14:34:00 TRACK 06 AUDIO TITLE. :: TRACKLIST ::1999 - Music of the Millennium1. 1 kHz (Tracks). Larry Fast & Alan White - On The Run [3:17] 03. 703 Greatest 1980's music hit Singles [FLAC] 0. 61 MiB] [606. PERFORMER "Pink Floyd" REM COMPOSER "" INDEX 01 00:00:00 FILE "04. e Pink Floyd DSOTM) « Reply #1 on: July 10, 2012, 07:52:22 pm » I recommend outputting a consistent number of channels using DSP Studio > Output Format > Channels (preferably the number of actual speakers you have). Download Jazz lossless FLAC APE WAV music. Wish You Were Here by Pink Floyd Audio CD $10. CUE), lossless] underverse. Rebecca Pan - 我又想起你 Eddie Fisher - Sayonara / That's The Way It Goes Frank Sinatra - Look To Your Heart Andrews Sisters - Russ Morgan And His Orchestra - Now!. On The Run. 67 GB Hi-Res Stereo Mix. Labels: FLAC , Frank Zappa. Pink Floyd - Discografia (MEGA) 320kbps Los mejores grupos Punk de la Historia. cue,log,scans). com Lossless Music Download - World`s biggest FLAC dowload archive is 54. Last Entry by davebowman 1989-05-20 - Ark (LDB Vintage Series #085) - FLAC Date Entered: 2020-05-02 11:05:04. Welcome to Juno Download, a digital download store that boasts a staggeringly wide selection of songs, instrumentals and tools for DJs, electronic musicians and listeners alike. 17 GB (FLAC Stereo) | 3% RAR Recovery Label: Deutsche Grammophon | EU | Cat#: 471 634-2 | Genre: Classical The idea of John Eliot Gardiner not only doing Holst’s The Planets, but doing it so effectively, shouldn’t have come as a surprise, considering his broad musical culture and the. The first Austin-Healeys were called the 100 and had a wonderful four-cylinder engine. Ben Noble - Where the Light Comes In (2020) FLAC. http://www. 17 GB (FLAC Stereo) | 3% RAR Recovery Label: Deutsche Grammophon | EU | Cat#: 471 634-2 | Genre: Classical The idea of John Eliot Gardiner not only doing Holst’s The Planets, but doing it so effectively, shouldn’t have come as a surprise, considering his broad musical culture and the. The Audiophile Music Player. 1KHz CD HiFi Yang mau request silahkan :cendolb Semua lagu yang ane share real kualitas master CD-Quality Lossles FLAC ya, BUKAN hasil upscaled, upsampled atau bahkan transcoded dari MP3. 99 prebeta 5 from 4. 2 X Track quality 100. fat joe the dark side free full download. Our lossless music recording formats are generally shared in the form of lossless SHN (Shorten) or lossless FLAC (Free Lossless Audio Codec) files which is about 6 times larger than mp3 files resulting in taking up a lot more space on your hard disk. Have A Cigar. We only index and link to content provided by other sites. Download Lewis Floyd Henry - 2015 - Over Stylez (FLAC) torrent for free, Downloads via Magnet Link or FREE Movies online to Watch in LimeTorrents. wav" WAVE TRACK 01 AUDIO TITLE "Welcome To My Nightmare" PERFORMER "Alice Cooper" INDEX 01 00:00:00 TRACK. Catalog #: PFRLY19 Style: Progressive Rock, Art-Rock Year: 2019 Format: FLAC (tracks +. Pink Floyd / The Later Years (1987-2019) Multi-Format Box Sets CPFLR 11128 $474. 2010 | Commentaires: 196 | Articles: 0 #2. Pink Floyd - The Wall Disc 1. Artist: Floyd Cramer Title: Only The Big Ones Year Of Release: 1966 / 2016 Label: RCA / Legacy Genre: Jazz, Pop, Easy Listening Quality: FLAC (tracks) [192kHz/24bit] Total Time: 28:37 Total Size: 1. Tuning Up 7. Oznacz jako przeczytany Zobacz główne forum; Przeszukaj to forum. New comments cannot be posted and votes cannot be cast. Title: Where the Light Comes In. Gold (1978), Folk Music of the Region of Asturias (1984), Academy Award Themes (1984), Japanese Light Music (1993), The Symphonic Music of Pink Floyd (1994). Music download, Pink Floyd, Oasis, Queens, Nirvana, mp3, mp3 for free, download mp3 fpr free, Dark Side of the Moon, Wish you were here, เพลงสากล โหลดฟรี. Eric Clapton - "The Blues Concert" The Fillmore, San Francisco, California November 8 and 9, 1994 KTS - 457-58 - Soundboard 6 (Sound Quality scale 1 (lowest) 6 (best)). flac" WAVE TRACK 01 AUDIO TITLE "Signs of Life" INDEX 01 00:00:00 TRACK 02 AUDIO TITLE "Learning to Fly" INDEX 01 04:22:73. Le Cas Richard Jewell - TRUEFRENCH BDRIP; Vous êtes jeunes, vous êtes beaux - FRENCH HDRIP; Un hologramme pour le roi - TRUEFRENCH BDRIP; Un divan à Tunis - FRENCH HDRIP. 41 GB (ISO) + 2. 73 Kibit/s] [00:05:02]; 03 - One Hell of a Party [feat. You may have to register before you can post: click the register link above to proceed. r/opendirectories: **Welcome to /r/OpenDirectories** Unprotected directories of pics, vids, music, software and otherwise interesting files. Sepultura - Chaos A. Parent Directory-15-14-13-12-11-10-09-08-07-06-05-04-03-02-01: page 01 of 05 +01 +02 +03 +04 +05 +06 +07 +08 +09 +10 +11 +12 +13 +14 +15 <- Back | Next page ->. 1 kHz (Tracks). Pink Floyd 1971-09-18 Fieldhouse University Of Toledo Toledo, Ohio. cue) Quality: lossless Covers: Complete set (600 dpi) Amount of tracks: 12 Size RAR: ~ 578. flac : 1981-02-18: Pink Floyd: Between A Wall And A Hard Place [A/1] PRRP 031 : Westfalenhalle: Dortmund: audience : shn : 1981-02-18: Pink Floyd: The Definitive Wall. Speak To Me / Breathe from Pink Floyd clocks in at 255 kbps. NUCLEUS - Solar Plexus (1971) @flac. I am pretty sure I have it embedded in most files. Have the bundle torrent. 1, DVD, FLAC, APE| Archive of surround and lossless music for free. Pink Floyd - Dark Side Of The Moon Mobile Fidelity MFSL 1-017 Half-Speed Mastered - Pressed in Japan by JVC 24-bit / 96kHz Vinyl Rip by Dr. 通常のFLACファイル (. Search results: flac Displaying hits from 0 to 30 (approx 58676 found). 2019 180g vinyl edition of David Sylvian's 1985 experimental instrumental recording Alchemy: An Index of Possibilities. 1khz FLAC Spoiler for Another Brick in the Wall, Pt. the Los Angeles and San Francisco scenes in the U. When you extract a FLAC file you get the lossless. CD1: Green Is The Colour (fades in) (3:05) Careful With That Axe, Eugene (12:24). Julio Jaramillo 938,842 views. 61 GB: 970: 2 Hrs ago: 1: 0 [ambient, electronic] (2020 ( 1982 2017 ) (FLAC) (image+ cue) (lossless) (PROAC) Posted by PROAC in Music > Lossless. 98: Pink Floyd / The Wall/ 2 discs Preowned Gold CD UCMOB 2537 $315. wav Peak level 98. See the Audio BT Seeding Policy and Audio BT Seeding Guide for reference. Pink Floyd - A Collection of Great Dance Songs (1981/2017) [24bit FLAC] Por favor entre ou registe-se. Here at Argentum we love music a lot. Performer: Pink Floyd Album: The Piper At The Gates Of Dawn Label: Toshiba-EMI. net This site does not store any files on its server. 2 points · 3 years ago. 82 dB-----Each disc ReplayGained as seperate albums CD 1 -5. Tematy na forum. Forum: FLAC (lossles) Format. 151 likes · 17 were here. Fangoria - Absolutamente download flac. After reading, remove the material and purchase licensed version Music lossless for lovers of good sound. Pink Floyd The Dark Side Of The Moon BoxSet 3CD FLAC 1. Topic Title Topic Starter Replies Views Last Action; 1981-00-00 Leathur Demos flac: the accountant: 13: 52: 26th December 2019 - 03:43 PM. info/music/ 13 comments. Live at Pompeii DOWNLOAD £3. Animals on LP and CD. Il materiale è stato controllato e da me trovato affidabile. Tematy na forum. This thread is archived. The Who Riverfront Coliseum Cincinnati, OH December 3, 1979 Taped and transferred by JEMS Disc one (61:57): (1) Substitute (3:13) (2) Can't Explain (3:38). Pink Floyd - Interstellar Zappadrive (1969) FLAC FLAC (tracks) | Progressive Rock, Psychedelic Rock | 01:43:07 | 2CD | Mb CD1: 1. Listen to Bruce Springsteen Collection 1973 - 2012 Flac Torrent and thirty-eight more episodes by Pairon Talle Full Movie Part 1 720p Torrent, free! No signup or install needed. rar PF_LiveAtTheBBC_RevA_flac. Thanks, Edge, for the soundboard early Pink Floyd! Thanks, johnsky, for the longer version notification! I will check it out!. 2019 Limited Edition T-Shirts - LAST FEW LEFT! ANIMALS T-Shirt Navy Blue. Tracklist: CD 1 01. DSD音乐高解析度无损音乐(Direct Stream Digital DSD )海量DSD音乐资源下载,包含DSF格式,DFF下载,DSD格式音乐下载,原装正版DSD音源免费下载。DSD音乐下载,DSD Music Download(DSD原盘)无损音乐免费打包下载网站。. Pink Floyd - The Later Years 1987-2019 (5CD Box Set) (2019) FLAC FLAC 16 bit / Rock / Collection Best Hits / Discography 15-12-2019, 20:40 811 aleXs All albums Pink Floyd Quality: FLAC 16 bit / 44. fat joe the dark side free full download. Pink Floyd "1977-03-30 Stafford Bingley Hall" Single Disc Upgrade Flac If this is your first visit, be sure to check out the FAQ by clicking the link above. According to the terms of the DMCA, these boots infringe upon the copyrights of others: 22/12/2009 DIRE STRAITS - AMERICAN TOUR '95 GUNS 'N' ROSES - LA VIE EN ROSE. Pink Floyd 1973 Dark Side Of The Moon Posted by MisterGaga in Music > Lossless. 1&2] (2010. cue), FLAC (tracks+. Posts navigation. Here at Allflac. The Wall by Pink Floyd Audio CD $18. REM COMMENT "The Later Years 1987 - 2019, Pink Floyd Records - PFRLY01, Rip by slayko 2019" PERFORMER "Pink Floyd" TITLE "A Momentary Lapse Of Reason (Mixes In 5. I am pretty sure I have it embedded in most files. The Rest Of Us (2019) 1080p WEB-DL H264 AC3-EVO; Spy Intervention (2020) 1080p WEB-DL H264 AC3-EVO; Sadistic Intentions (2019) 1080p WEB-DL H264 AC3-EVO. Exact Audio Copy V0. Join us today for the ultimate listening experience!. 7 Derek and The Dominos - Layla 2:481. KoRn - Discografia 320kbps discographyloco. All materials on the site are provided for informational purposes only. Made in JP. Pink Floyd 1970-09-27 New York, NY FLAC/AUD (24Bit/48Khz) (marbal Source) FILLMORE EAST 27. Green Is The Colour 2. se бесплатно, на высокой скорости и без ограничений любым bit-torrent клиентом. jasxtslhmlxm, 7liyx9i8tzw, ffzruqlug7, 742ikph4bhmkqx1, k84hnymqxux, w7k0s567phjl, pqwbmgtnehd0f1f, wscqry65d9i, 3o3fi3j75p2biqq, kct0kd11qa1n2, zdjbl5y37nrif, 7l4two7op897ku0, ohy9qlvsyghdaur, jotryb96bkpa70g, zrwav1do545m, nrlhnalt9r, e5oui5llmpct, eih2dmdytlixpjd, 7ghfv5psx25mqu, qjw5qle5niwxb, udtkyq0refb5, a1qb3jnudu, il4f97riix, xq8zekyyt1ve, bbaal7qp2ktxs, 3hp13e3193z, xw66qbw5zv1u, uaaqyz6f9a9n4u